  0
SECTION
  2
HEADER
  9
$ACADVER
  1
AC1009
  9
$INSBASE
 10
0.000000000
 20
0.000000000
  9
$EXTMIN
 10
-33948.297398042
 20
-35139.414968096
  9
$EXTMAX
 10
36057.899526880
 20
28755.875292014
  9
$LIMMIN
 10
-33948.297398042
 20
-35139.414968096
  9
$LIMMAX
 10
36057.899526880
 20
28755.875292014
  9
$SNAPBASE
 10
0.000000000
 20
0.000000000
  9
$SNAPANG
 50
0.000000000
  9
$SNAPSTYLE
 70
0
  9
$GRIDMODE
 70
0
  9
$GRIDUNIT
 10
0.000000000
 20
0.000000000
  9
$DIMEXO
 40
0.000000000
  9
$DIMDLI
 40
8.000000000
  9
$DIMDLE
 40
0.000000000
  9
$DIMEXE
 40
1.000000000
  9
$DIMTIH
 70
1
  9
$DIMTOH
 70
1
  9
$DIMTAD
 70
2
  9
$DIMZIN
 70
0
  9
$FILLETRAD
 40
1.000000000
  9
$CHAMFERA
 40
1.000000000
  9
$CHAMFERB
 40
1.000000000
  9
$TEXTSTYLE
  7
STANDARD
  9
$TDCREATE
 40
2455391.386388889
  9
$TDUPDATE
 40
2455391.386388889
  9
$ANGBASE
 50
0.000000000
  9
$ANGDIR
 70
0
  0
ENDSEC
  0
SECTION
  2
TABLES
  0
TABLE
  2
LTYPE
 70
4
  0
LTYPE
  2
CONTINUOUS
 70
64
  3
______________
 72
65
 73
0
 40
0.000000000
  0
LTYPE
  2
DASHDOT2
 70
64
  3
_ . _ . _ . _ 
 72
65
 73
4
 40
10.000000000
 49
5.000000000
 49
-2.500000000
 49
0.000000000
 49
-2.500000000
  0
LTYPE
  2
DIVIDE
 70
64
  3
___ . . ___ . 
 72
65
 73
6
 40
12.999999523
 49
5.199999809
 49
-2.599999905
 49
0.000000000
 49
-2.599999905
 49
0.000000000
 49
-2.599999905
  0
LTYPE
  2
HIDDEN2
 70
64
  3
_ _ _ _ _ _ _ 
 72
65
 73
2
 40
2.000000000
 49
1.399999976
 49
-0.600000024
  0
ENDTAB
  0
TABLE
  2
LAYER
 70
3
  0
LAYER
  2
1
 70
0
 62
7
  6
CONTINUOUS
999
0
  0
LAYER
  2
2
 70
0
 62
1
  6
CONTINUOUS
999
Comment002
  0
LAYER
  2
3
 70
0
 62
2
  6
CONTINUOUS
999
Comment003
  0
LAYER
  2
_CONSTR
 70
0
 62
5
  6
CONTINUOUS
  0
ENDTAB
  0
TABLE
  2
STYLE
 70
1
  0
STYLE
  2
STANDARD
 70
64
 40
0.000000000
 42
3.200000000
 41
0.600000000
 50
0.000000000
 71
0
  3
TXT
  4
BIGFONT
  0
STYLE
  2
VISION_STANDARD
 70
64
 40
0.000000000
 42
3.200000000
 41
0.600000000
 50
0.000000000
 71
0
  3
TXT
  4
BIGFONT
  0
ENDTAB
  0
TABLE
  2
VPORT
 70
2
  0
VPORT
  2
*ACTIVE
 70
0
 10
0.000000000
 20
0.000000000
 11
1.000000000
 21
1.000000000
 12
1054.801064419
 22
-3191.769838041
 13
0.000000000
 23
0.000000000
 14
1.000000000
 24
1.000000000
 15
0.000000000
 25
0.000000000
 16
0.000000000
 26
0.000000000
 36
1.000000000
 17
0.000000000
 27
0.000000000
 37
0.000000000
 40
63895.290260111
 41
1.095639391
 42
50.000000000
 43
0.000000000
 44
0.000000000
 50
0.000000000
 51
0.000000000
 71
0
 72
100
 73
1
 74
1
 75
0
 76
0
 77
0
 78
0
  0
ENDTAB
  0
TABLE
  2
VIEW
 70
0
  0
ENDTAB
  0
TABLE
  2
DIMSTYLE
 70
1
  0
DIMSTYLE
  2
STANDARD
 70
0
  3

  4

  5

  6

  7

 40
1.000000000
 41
2.500000000
 42
0.000000000
 43
8.000000000
 44
1.000000000
 45
0.000000000
 46
0.000000000
 47
0.000000000
 48
0.000000000
140
3.200000000
141
2.500000000
142
0.000000000
143
0.039400000
144
1.000000000
145
0.000000000
146
1.000000000
147
0.625000000
 71
0
 72
0
 73
1
 74
1
 75
0
 76
0
 77
2
 78
8
170
0
171
2
172
0
173
0
174
0
175
0
176
0
177
0
178
0
  0
ENDTAB
  0
ENDSEC
  0
SECTION
  2
BLOCKS
  0
BLOCK
  8
0
  2
blk258
 70
64
 10
0.000000000
 20
0.000000000
  3
blk258
  0
ARC
  8
1
 62
7
  6
CONTINUOUS
 10
0.000000000
 20
0.000000000
 40
1.000000000
 50
90.000000000
 51
92.055937824
  0
ENDBLK
  8
0
  0
BLOCK
  8
0
  2
blk458
 70
64
 10
0.000000000
 20
0.000000000
  3
blk458
  0
ARC
  8
1
 62
7
  6
CONTINUOUS
 10
0.000000000
 20
0.000000000
 40
1.000000000
 50
127.538257229
 51
127.539531649
  0
ENDBLK
  8
0
  0
BLOCK
  8
0
  2
blk460
 70
64
 10
0.000000000
 20
0.000000000
  3
blk460
  0
ARC
  8
1
 62
7
  6
CONTINUOUS
 10
0.000000000
 20
0.000000000
 40
1.000000000
 50
54.029609388
 51
54.030883847
  0
ENDBLK
  8
0
  0
BLOCK
  8
0
  2
*D741
 70
65
 10
0.000000000
 20
0.000000000
  3
*D
  0
TEXT
  8
2
 62
4
  6
CONTINUOUS
 72
5
 10
767.542519927
 20
-390.029910544
 40
8.000000000
  1
35
 41
0.899998740
 11
779.542519927
 21
-390.029910544
  0
LINE
  8
2
 62
4
  6
CONTINUOUS
 10
756.018519926
 20
-218.342395499
 11
756.018519926
 21
-398.329910544
  0
POLYLINE
  8
2
 62
4
  6
CONTINUOUS
 66
1
  0
VERTEX
  8
2
 10
758.018519926
 20
-396.029910544
  0
VERTEX
  8
2
 10
756.018519926
 20
-396.329910544
  0
VERTEX
  8
2
 10
758.018519926
 20
-396.629910544
  0
SEQEND
  8
2
  0
LINE
  8
2
 62
4
  6
CONTINUOUS
 10
756.018519926
 20
-396.329910544
 11
791.018519927
 21
-396.329910544
  0
POLYLINE
  8
2
 62
4
  6
CONTINUOUS
 66
1
  0
VERTEX
  8
2
 10
789.018519927
 20
-396.629910544
  0
VERTEX
  8
2
 10
791.018519927
 20
-396.329910544
  0
VERTEX
  8
2
 10
789.018519927
 20
-396.029910544
  0
SEQEND
  8
2
  0
LINE
  8
2
 62
4
  6
CONTINUOUS
 10
791.018519927
 20
-235.842395498
 11
791.018519927
 21
-398.329910544
  0
ENDBLK
  8
0
  0
BLOCK
  8
0
  2
*D742
 70
65
 10
0.000000000
 20
0.000000000
  3
*D
  0
TEXT
  8
3
 62
4
  6
CONTINUOUS
 72
5
 10
1457.079082552
 20
161.143145183
 40
8.000000000
  1
307
 41
0.959999232
 50
90.000000000
 11
1457.079082552
 21
180.343145183
  0
LINE
  8
3
 62
4
  6
CONTINUOUS
 10
1397.982374717
 20
17.314047942
 11
1465.379082552
 21
17.314047942
  0
POLYLINE
  8
3
 62
4
  6
CONTINUOUS
 66
1
  0
VERTEX
  8
3
 10
1463.079082552
 20
19.314047942
  0
VERTEX
  8
3
 10
1463.379082552
 20
17.314047942
  0
VERTEX
  8
3
 10
1463.679082552
 20
19.314047942
  0
SEQEND
  8
3
  0
LINE
  8
3
 62
4
  6
CONTINUOUS
 10
1463.379082552
 20
17.314047942
 11
1463.379082552
 21
324.124242424
  0
POLYLINE
  8
3
 62
4
  6
CONTINUOUS
 66
1
  0
VERTEX
  8
3
 10
1463.679082552
 20
322.124242424
  0
VERTEX
  8
3
 10
1463.379082552
 20
324.124242424
  0
VERTEX
  8
3
 10
1463.079082552
 20
322.124242424
  0
SEQEND
  8
3
  0
LINE
  8
3
 62
4
  6
CONTINUOUS
 10
1385.982374717
 20
324.124242424
 11
1465.379082552
 21
324.124242424
  0
ENDBLK
  8
0
  0
BLOCK
  8
0
  2
*D743
 70
65
 10
0.000000000
 20
0.000000000
  3
*D
  0
TEXT
  8
2
 62
4
  6
CONTINUOUS
 72
5
 10
1429.023111499
 20
74.893145183
 40
8.000000000
  1
134
 41
1.028570253
 50
90.000000000
 11
1429.023111499
 21
94.093145183
  0
LINE
  8
2
 62
4
  6
CONTINUOUS
 10
1412.152314277
 20
151.624242424
 11
1437.323111499
 21
151.624242424
  0
POLYLINE
  8
2
 62
4
  6
CONTINUOUS
 66
1
  0
VERTEX
  8
2
 10
1435.623111499
 20
149.624242424
  0
VERTEX
  8
2
 10
1435.323111499
 20
151.624242424
  0
VERTEX
  8
2
 10
1435.023111499
 20
149.624242424
  0
SEQEND
  8
2
  0
LINE
  8
2
 62
4
  6
CONTINUOUS
 10
1435.323111499
 20
151.624242424
 11
1435.323111499
 21
17.314047942
  0
POLYLINE
  8
2
 62
4
  6
CONTINUOUS
 66
1
  0
VERTEX
  8
2
 10
1435.023111499
 20
19.314047942
  0
VERTEX
  8
2
 10
1435.323111499
 20
17.314047942
  0
VERTEX
  8
2
 10
1435.623111499
 20
19.314047942
  0
SEQEND
  8
2
  0
LINE
  8
2
 62
4
  6
CONTINUOUS
 10
1397.982374717
 20
17.314047942
 11
1437.323111499
 21
17.314047942
  0
ENDBLK
  8
0
  0
BLOCK
  8
0
  2
*D744
 70
65
 10
0.000000000
 20
0.000000000
  3
*D
  0
TEXT
  8
2
 62
4
  6
CONTINUOUS
 72
5
 10
1429.149072032
 20
154.398242424
 40
8.000000000
  1
18
 41
1.124997750
 50
90.000000000
 11
1429.149072032
 21
166.398242424
  0
LINE
  8
2
 62
4
  6
CONTINUOUS
 10
1417.982374717
 20
169.124242424
 11
1437.449072032
 21
169.124242424
  0
POLYLINE
  8
2
 62
4
  6
CONTINUOUS
 66
1
  0
VERTEX
  8
2
 10
1435.749072032
 20
167.124242424
  0
VERTEX
  8
2
 10
1435.449072032
 20
169.124242424
  0
VERTEX
  8
2
 10
1435.149072032
 20
167.124242424
  0
SEQEND
  8
2
  0
LINE
  8
2
 62
4
  6
CONTINUOUS
 10
1435.449072032
 20
169.124242424
 11
1435.449072032
 21
151.624242424
  0
POLYLINE
  8
2
 62
4
  6
CONTINUOUS
 66
1
  0
VERTEX
  8
2
 10
1435.149072032
 20
153.624242424
  0
VERTEX
  8
2
 10
1435.449072032
 20
151.624242424
  0
VERTEX
  8
2
 10
1435.749072032
 20
153.624242424
  0
SEQEND
  8
2
  0
LINE
  8
2
 62
4
  6
CONTINUOUS
 10
1412.152314277
 20
151.624242424
 11
1437.449072032
 21
151.624242424
  0
ENDBLK
  8
0
  0
BLOCK
  8
0
  2
*D745
 70
65
 10
0.000000000
 20
0.000000000
  3
*D
  0
TEXT
  8
2
 62
4
  6
CONTINUOUS
 72
5
 10
1275.931856214
 20
364.521765146
 40
8.000000000
  1
175
 41
1.028570253
 11
1295.131856214
 21
364.521765146
  0
LINE
  8
2
 62
4
  6
CONTINUOUS
 10
1372.982374717
 20
319.095865172
 11
1372.982374717
 21
360.221765146
  0
POLYLINE
  8
2
 62
4
  6
CONTINUOUS
 66
1
  0
VERTEX
  8
2
 10
1370.982374717
 20
357.921765146
  0
VERTEX
  8
2
 10
1372.982374717
 20
358.221765146
  0
VERTEX
  8
2
 10
1370.982374717
 20
358.521765146
  0
SEQEND
  8
2
  0
LINE
  8
2
 62
4
  6
CONTINUOUS
 10
1372.982374717
 20
358.221765146
 11
1198.033337710
 21
358.221765146
  0
POLYLINE
  8
2
 62
4
  6
CONTINUOUS
 66
1
  0
VERTEX
  8
2
 10
1200.033337710
 20
358.521765146
  0
VERTEX
  8
2
 10
1198.033337710
 20
358.221765146
  0
VERTEX
  8
2
 10
1200.033337710
 20
357.921765146
  0
SEQEND
  8
2
  0
LINE
  8
2
 62
4
  6
CONTINUOUS
 10
1198.033337710
 20
248.968781222
 11
1198.033337710
 21
360.221765146
  0
ENDBLK
  8
0
  0
BLOCK
  8
0
  2
*D750
 70
65
 10
0.000000000
 20
0.000000000
  3
*D
  0
TEXT
  8
2
 62
4
  6
CONTINUOUS
 72
5
 10
1379.506374717
 20
364.286128407
 40
8.000000000
  1
25
 41
0.899998740
 11
1391.506374717
 21
364.286128407
  0
LINE
  8
2
 62
4
  6
CONTINUOUS
 10
1397.982374717
 20
320.934436905
 11
1397.982374717
 21
359.986128407
  0
POLYLINE
  8
2
 62
4
  6
CONTINUOUS
 66
1
  0
VERTEX
  8
2
 10
1395.982374717
 20
357.686128407
  0
VERTEX
  8
2
 10
1397.982374717
 20
357.986128407
  0
VERTEX
  8
2
 10
1395.982374717
 20
358.286128407
  0
SEQEND
  8
2
  0
LINE
  8
2
 62
4
  6
CONTINUOUS
 10
1397.982374717
 20
357.986128407
 11
1372.982374717
 21
357.986128407
  0
POLYLINE
  8
2
 62
4
  6
CONTINUOUS
 66
1
  0
VERTEX
  8
2
 10
1374.982374717
 20
358.286128407
  0
VERTEX
  8
2
 10
1372.982374717
 20
357.986128407
  0
VERTEX
  8
2
 10
1374.982374717
 20
357.686128407
  0
SEQEND
  8
2
  0
LINE
  8
2
 62
4
  6
CONTINUOUS
 10
1372.982374717
 20
319.095865172
 11
1372.982374717
 21
359.986128407
  0
ENDBLK
  8
0
  0
BLOCK
  8
0
  2
*D751
 70
65
 10
0.000000000
 20
0.000000000
  3
*D
  0
TEXT
  8
2
 62
4
  6
CONTINUOUS
 72
5
 10
1288.425580776
 20
377.618747363
 40
8.000000000
  1
200
 41
1.028572016
 11
1307.625580776
 21
377.618747363
  0
LINE
  8
2
 62
4
  6
CONTINUOUS
 10
1397.982374717
 20
320.934436905
 11
1397.982374717
 21
373.318747363
  0
POLYLINE
  8
2
 62
4
  6
CONTINUOUS
 66
1
  0
VERTEX
  8
2
 10
1395.982374717
 20
371.018747363
  0
VERTEX
  8
2
 10
1397.982374717
 20
371.318747363
  0
VERTEX
  8
2
 10
1395.982374717
 20
371.618747363
  0
SEQEND
  8
2
  0
LINE
  8
2
 62
4
  6
CONTINUOUS
 10
1397.982374717
 20
371.318747363
 11
1198.020786835
 21
371.318747363
  0
POLYLINE
  8
2
 62
4
  6
CONTINUOUS
 66
1
  0
VERTEX
  8
2
 10
1200.020786835
 20
371.618747363
  0
VERTEX
  8
2
 10
1198.020786835
 20
371.318747363
  0
VERTEX
  8
2
 10
1200.020786835
 20
371.018747363
  0
SEQEND
  8
2
  0
LINE
  8
2
 62
4
  6
CONTINUOUS
 10
1198.020786835
 20
252.468381024
 11
1198.020786835
 21
373.318747363
  0
ENDBLK
  8
0
  0
BLOCK
  8
0
  2
*D752
 70
65
 10
0.000000000
 20
0.000000000
  3
*D
  0
TEXT
  8
3
 62
4
  6
CONTINUOUS
 72
5
 10
1094.012004036
 20
-58.922835421
 40
8.000000000
  1
3
 41
0.899996850
 50
90.000000000
 11
1094.012004036
 21
-54.122835421
  0
LINE
  8
3
 62
4
  6
CONTINUOUS
 10
756.018519926
 20
-63.342394306
 11
1102.312004036
 21
-63.342394306
  0
POLYLINE
  8
3
 62
4
  6
CONTINUOUS
 66
1
  0
VERTEX
  8
3
 10
1100.612004036
 20
-61.342394306
  0
VERTEX
  8
3
 10
1100.312004036
 20
-63.342394306
  0
SEQEND
  8
3
  0
POLYLINE
  8
3
 62
4
  6
CONTINUOUS
 66
1
  0
VERTEX
  8
3
 10
1100.312004036
 20
-60.342394306
  0
VERTEX
  8
3
 10
1100.312004036
 20
-63.342394306
  0
VERTEX
  8
3
 10
1100.012004036
 20
-61.342394306
  0
SEQEND
  8
3
  0
LINE
  8
3
 62
4
  6
CONTINUOUS
 10
1100.312004036
 20
-63.342394306
 11
1100.312004036
 21
-66.532201017
  0
POLYLINE
  8
3
 62
4
  6
CONTINUOUS
 66
1
  0
VERTEX
  8
3
 10
1100.012004036
 20
-68.532201017
  0
VERTEX
  8
3
 10
1100.312004036
 20
-66.532201017
  0
SEQEND
  8
3
  0
POLYLINE
  8
3
 62
4
  6
CONTINUOUS
 66
1
  0
VERTEX
  8
3
 10
1100.312004036
 20
-69.532201017
  0
VERTEX
  8
3
 10
1100.312004036
 20
-66.532201017
  0
VERTEX
  8
3
 10
1100.612004036
 20
-68.532201017
  0
SEQEND
  8
3
  0
LINE
  8
3
 62
4
  6
CONTINUOUS
 10
756.018519926
 20
-66.532201017
 11
1102.312004036
 21
-66.532201017
  0
POLYLINE
  8
3
 62
4
  6
CONTINUOUS
 66
1
  0
VERTEX
  8
3
 10
1100.312004036
 20
-66.532201017
  0
VERTEX
  8
3
 10
1100.312004036
 20
-52.170835421
  0
SEQEND
  8
3
  0
ENDBLK
  8
0
  0
BLOCK
  8
0
  2
*D753
 70
65
 10
0.000000000
 20
0.000000000
  3
*D
  0
TEXT
  8
3
 62
4
  6
CONTINUOUS
 72
5
 10
437.398307531
 20
-150.418394902
 40
8.000000000
  1
155
 41
1.028570253
 50
90.000000000
 11
437.398307531
 21
-131.218394902
  0
LINE
  8
3
 62
4
  6
CONTINUOUS
 10
756.018519926
 20
-63.342394306
 11
441.698307531
 21
-63.342394306
  0
POLYLINE
  8
3
 62
4
  6
CONTINUOUS
 66
1
  0
VERTEX
  8
3
 10
443.998307531
 20
-65.342394306
  0
VERTEX
  8
3
 10
443.698307531
 20
-63.342394306
  0
VERTEX
  8
3
 10
443.398307531
 20
-65.342394306
  0
SEQEND
  8
3
  0
LINE
  8
3
 62
4
  6
CONTINUOUS
 10
443.698307531
 20
-63.342394306
 11
443.698307531
 21
-218.342395499
  0
POLYLINE
  8
3
 62
4
  6
CONTINUOUS
 66
1
  0
VERTEX
  8
3
 10
443.398307531
 20
-216.342395499
  0
VERTEX
  8
3
 10
443.698307531
 20
-218.342395499
  0
VERTEX
  8
3
 10
443.998307531
 20
-216.342395499
  0
SEQEND
  8
3
  0
LINE
  8
3
 62
4
  6
CONTINUOUS
 10
480.212006949
 20
-218.342395499
 11
441.698307531
 21
-218.342395499
  0
ENDBLK
  8
0
  0
BLOCK
  8
0
  2
*D754
 70
65
 10
0.000000000
 20
0.000000000
  3
*D
  0
TEXT
  8
3
 62
4
  6
CONTINUOUS
 72
5
 10
437.398307531
 20
-303.823492740
 40
8.000000000
  1
152
 41
1.028570253
 50
90.000000000
 11
437.398307531
 21
-284.623492740
  0
LINE
  8
3
 62
4
  6
CONTINUOUS
 10
756.018519926
 20
-370.152589981
 11
441.698307531
 21
-370.152589981
  0
POLYLINE
  8
3
 62
4
  6
CONTINUOUS
 66
1
  0
VERTEX
  8
3
 10
443.398307531
 20
-368.152589981
  0
VERTEX
  8
3
 10
443.698307531
 20
-370.152589981
  0
VERTEX
  8
3
 10
443.998307531
 20
-368.152589981
  0
SEQEND
  8
3
  0
LINE
  8
3
 62
4
  6
CONTINUOUS
 10
443.698307531
 20
-370.152589981
 11
443.698307531
 21
-218.342395499
  0
POLYLINE
  8
3
 62
4
  6
CONTINUOUS
 66
1
  0
VERTEX
  8
3
 10
443.998307531
 20
-220.342395499
  0
VERTEX
  8
3
 10
443.698307531
 20
-218.342395499
  0
VERTEX
  8
3
 10
443.398307531
 20
-220.342395499
  0
SEQEND
  8
3
  0
LINE
  8
3
 62
4
  6
CONTINUOUS
 10
467.708325445
 20
-218.342395499
 11
441.698307531
 21
-218.342395499
  0
ENDBLK
  8
0
  0
BLOCK
  8
0
  2
*D755
 70
65
 10
0.000000000
 20
0.000000000
  3
*D
  0
TEXT
  8
3
 62
4
  6
CONTINUOUS
 72
5
 10
1094.005155384
 20
-312.573492739
 40
8.000000000
  1
134
 41
1.028570253
 50
90.000000000
 11
1094.005155384
 21
-293.373492739
  0
LINE
  8
3
 62
4
  6
CONTINUOUS
 10
971.018519927
 20
-235.842395498
 11
1102.305155384
 21
-235.842395498
  0
POLYLINE
  8
3
 62
4
  6
CONTINUOUS
 66
1
  0
VERTEX
  8
3
 10
1100.605155384
 20
-237.842395498
  0
VERTEX
  8
3
 10
1100.305155384
 20
-235.842395498
  0
VERTEX
  8
3
 10
1100.005155384
 20
-237.842395498
  0
SEQEND
  8
3
  0
LINE
  8
3
 62
4
  6
CONTINUOUS
 10
1100.305155384
 20
-235.842395498
 11
1100.305155384
 21
-370.152589981
  0
POLYLINE
  8
3
 62
4
  6
CONTINUOUS
 66
1
  0
VERTEX
  8
3
 10
1100.005155384
 20
-368.152589981
  0
VERTEX
  8
3
 10
1100.305155384
 20
-370.152589981
  0
VERTEX
  8
3
 10
1100.605155384
 20
-368.152589981
  0
SEQEND
  8
3
  0
LINE
  8
3
 62
4
  6
CONTINUOUS
 10
756.018519926
 20
-370.152589981
 11
1102.305155384
 21
-370.152589981
  0
ENDBLK
  8
0
  0
BLOCK
  8
0
  2
*D756
 70
65
 10
0.000000000
 20
0.000000000
  3
*D
  0
TEXT
  8
3
 62
4
  6
CONTINUOUS
 72
5
 10
1066.192956237
 20
-233.068395498
 40
8.000000000
  1
18
 41
1.124997750
 50
90.000000000
 11
1066.192956237
 21
-221.068395498
  0
LINE
  8
3
 62
4
  6
CONTINUOUS
 10
1044.328714408
 20
-218.342395499
 11
1074.492956237
 21
-218.342395499
  0
POLYLINE
  8
3
 62
4
  6
CONTINUOUS
 66
1
  0
VERTEX
  8
3
 10
1072.792956237
 20
-220.342395499
  0
VERTEX
  8
3
 10
1072.492956237
 20
-218.342395499
  0
VERTEX
  8
3
 10
1072.192956237
 20
-220.342395499
  0
SEQEND
  8
3
  0
LINE
  8
3
 62
4
  6
CONTINUOUS
 10
1072.492956237
 20
-218.342395499
 11
1072.492956237
 21
-235.842395498
  0
POLYLINE
  8
3
 62
4
  6
CONTINUOUS
 66
1
  0
VERTEX
  8
3
 10
1072.192956237
 20
-233.842395498
  0
VERTEX
  8
3
 10
1072.492956237
 20
-235.842395498
  0
VERTEX
  8
3
 10
1072.792956237
 20
-233.842395498
  0
SEQEND
  8
3
  0
LINE
  8
3
 62
4
  6
CONTINUOUS
 10
971.018519927
 20
-235.842395498
 11
1074.492956237
 21
-235.842395498
  0
ENDBLK
  8
0
  0
BLOCK
  8
0
  2
*D757
 70
65
 10
0.000000000
 20
0.000000000
  3
*D
  0
TEXT
  8
3
 62
4
  6
CONTINUOUS
 72
5
 10
1094.005155384
 20
-160.763298257
 40
8.000000000
  1
169
 41
1.028570253
 50
90.000000000
 11
1094.005155384
 21
-141.563298257
  0
LINE
  8
3
 62
4
  6
CONTINUOUS
 10
756.018519926
 20
-66.532201017
 11
1102.305155384
 21
-66.532201017
  0
POLYLINE
  8
3
 62
4
  6
CONTINUOUS
 66
1
  0
VERTEX
  8
3
 10
1100.605155384
 20
-68.532201017
  0
VERTEX
  8
3
 10
1100.305155384
 20
-66.532201017
  0
VERTEX
  8
3
 10
1100.005155384
 20
-68.532201017
  0
SEQEND
  8
3
  0
LINE
  8
3
 62
4
  6
CONTINUOUS
 10
1100.305155384
 20
-66.532201017
 11
1100.305155384
 21
-235.842395498
  0
POLYLINE
  8
3
 62
4
  6
CONTINUOUS
 66
1
  0
VERTEX
  8
3
 10
1100.005155384
 20
-233.842395498
  0
VERTEX
  8
3
 10
1100.305155384
 20
-235.842395498
  0
VERTEX
  8
3
 10
1100.605155384
 20
-233.842395498
  0
SEQEND
  8
3
  0
LINE
  8
3
 62
4
  6
CONTINUOUS
 10
971.018519927
 20
-235.842395498
 11
1102.305155384
 21
-235.842395498
  0
ENDBLK
  8
0
  0
BLOCK
  8
0
  2
*D760
 70
65
 10
0.000000000
 20
0.000000000
  3
*D
  0
TEXT
  8
3
 62
4
  6
CONTINUOUS
 72
5
 10
746.442519926
 20
-20.349633942
 40
8.000000000
  1
537
 41
0.899999213
 11
765.642519926
 21
-20.349633942
  0
LINE
  8
3
 62
4
  6
CONTINUOUS
 10
487.708325445
 20
-218.342395499
 11
487.708325445
 21
-24.649633942
  0
POLYLINE
  8
3
 62
4
  6
CONTINUOUS
 66
1
  0
VERTEX
  8
3
 10
489.708325445
 20
-26.349633942
  0
VERTEX
  8
3
 10
487.708325445
 20
-26.649633942
  0
VERTEX
  8
3
 10
489.708325445
 20
-26.949633942
  0
SEQEND
  8
3
  0
LINE
  8
3
 62
4
  6
CONTINUOUS
 10
487.708325445
 20
-26.649633942
 11
1024.328714408
 21
-26.649633942
  0
POLYLINE
  8
3
 62
4
  6
CONTINUOUS
 66
1
  0
VERTEX
  8
3
 10
1022.328714408
 20
-26.949633942
  0
VERTEX
  8
3
 10
1024.328714408
 20
-26.649633942
  0
VERTEX
  8
3
 10
1022.328714408
 20
-26.349633942
  0
SEQEND
  8
3
  0
LINE
  8
3
 62
4
  6
CONTINUOUS
 10
1024.328714408
 20
-218.342395499
 11
1024.328714408
 21
-24.649633942
  0
ENDBLK
  8
0
  0
BLOCK
  8
0
  2
*D761
 70
65
 10
0.000000000
 20
0.000000000
  3
*D
  0
TEXT
  8
3
 62
4
  6
CONTINUOUS
 72
5
 10
991.697617168
 20
-401.816016015
 40
8.000000000
  1
53
 41
0.899998740
 11
1003.697617168
 21
-401.816016015
  0
POLYLINE
  8
3
 62
4
  6
CONTINUOUS
 66
1
  0
VERTEX
  8
3
 10
973.018519927
 20
-407.816016015
  0
VERTEX
  8
3
 10
971.018519927
 20
-408.116016015
  0
VERTEX
  8
3
 10
973.018519927
 20
-408.416016015
  0
SEQEND
  8
3
  0
LINE
  8
3
 62
4
  6
CONTINUOUS
 10
971.018519927
 20
-408.116016015
 11
1024.328714408
 21
-408.116016015
  0
POLYLINE
  8
3
 62
4
  6
CONTINUOUS
 66
1
  0
VERTEX
  8
3
 10
1022.328714408
 20
-408.416016015
  0
VERTEX
  8
3
 10
1024.328714408
 20
-408.116016015
  0
VERTEX
  8
3
 10
1022.328714408
 20
-407.816016015
  0
SEQEND
  8
3
  0
LINE
  8
3
 62
4
  6
CONTINUOUS
 10
1024.328714408
 20
-218.342395499
 11
1024.328714408
 21
-410.116016015
  0
ENDBLK
  8
0
  0
BLOCK
  8
0
  2
*D762
 70
65
 10
0.000000000
 20
0.000000000
  3
*D
  0
TEXT
  8
3
 62
4
  6
CONTINUOUS
 72
5
 10
871.442519927
 20
-401.816016015
 40
8.000000000
  1
180
 41
1.107692649
 11
890.642519927
 21
-401.816016015
  0
POLYLINE
  8
3
 62
4
  6
CONTINUOUS
 66
1
  0
VERTEX
  8
3
 10
793.018519927
 20
-407.816016015
  0
VERTEX
  8
3
 10
791.018519927
 20
-408.116016015
  0
VERTEX
  8
3
 10
793.018519927
 20
-408.416016015
  0
SEQEND
  8
3
  0
LINE
  8
3
 62
4
  6
CONTINUOUS
 10
791.018519927
 20
-408.116016015
 11
971.018519927
 21
-408.116016015
  0
POLYLINE
  8
3
 62
4
  6
CONTINUOUS
 66
1
  0
VERTEX
  8
3
 10
969.018519927
 20
-408.416016015
  0
VERTEX
  8
3
 10
971.018519927
 20
-408.116016015
  0
VERTEX
  8
3
 10
969.018519927
 20
-407.816016015
  0
SEQEND
  8
3
  0
LINE
  8
3
 62
4
  6
CONTINUOUS
 10
971.018519927
 20
-235.842395498
 11
971.018519927
 21
-410.116016015
  0
ENDBLK
  8
0
  0
BLOCK
  8
0
  2
*D763
 70
65
 10
0.000000000
 20
0.000000000
  3
*D
  0
TEXT
  8
3
 62
4
  6
CONTINUOUS
 72
5
 10
691.442519927
 20
-401.816016015
 40
8.000000000
  1
180
 41
1.107692649
 11
710.642519927
 21
-401.816016015
  0
POLYLINE
  8
3
 62
4
  6
CONTINUOUS
 66
1
  0
VERTEX
  8
3
 10
613.018519927
 20
-407.816016015
  0
VERTEX
  8
3
 10
611.018519927
 20
-408.116016015
  0
VERTEX
  8
3
 10
613.018519927
 20
-408.416016015
  0
SEQEND
  8
3
  0
LINE
  8
3
 62
4
  6
CONTINUOUS
 10
611.018519927
 20
-408.116016015
 11
791.018519927
 21
-408.116016015
  0
POLYLINE
  8
3
 62
4
  6
CONTINUOUS
 66
1
  0
VERTEX
  8
3
 10
789.018519927
 20
-408.416016015
  0
VERTEX
  8
3
 10
791.018519927
 20
-408.116016015
  0
VERTEX
  8
3
 10
789.018519927
 20
-407.816016015
  0
SEQEND
  8
3
  0
LINE
  8
3
 62
4
  6
CONTINUOUS
 10
791.018519927
 20
-235.842395498
 11
791.018519927
 21
-410.116016015
  0
ENDBLK
  8
0
  0
BLOCK
  8
0
  2
*D764
 70
65
 10
0.000000000
 20
0.000000000
  3
*D
  0
TEXT
  8
3
 62
4
  6
CONTINUOUS
 72
5
 10
539.787422686
 20
-401.816016015
 40
8.000000000
  1
123
 41
1.028570253
 11
558.987422686
 21
-401.816016015
  0
LINE
  8
3
 62
4
  6
CONTINUOUS
 10
487.708325445
 20
-218.342395499
 11
487.708325445
 21
-410.116016015
  0
POLYLINE
  8
3
 62
4
  6
CONTINUOUS
 66
1
  0
VERTEX
  8
3
 10
489.708325445
 20
-407.816016015
  0
VERTEX
  8
3
 10
487.708325445
 20
-408.116016015
  0
VERTEX
  8
3
 10
489.708325445
 20
-408.416016015
  0
SEQEND
  8
3
  0
LINE
  8
3
 62
4
  6
CONTINUOUS
 10
487.708325445
 20
-408.116016015
 11
611.018519927
 21
-408.116016015
  0
POLYLINE
  8
3
 62
4
  6
CONTINUOUS
 66
1
  0
VERTEX
  8
3
 10
609.018519927
 20
-408.416016015
  0
VERTEX
  8
3
 10
611.018519927
 20
-408.116016015
  0
VERTEX
  8
3
 10
609.018519927
 20
-407.816016015
  0
SEQEND
  8
3
  0
LINE
  8
3
 62
4
  6
CONTINUOUS
 10
611.018519927
 20
-235.842395498
 11
611.018519927
 21
-410.116016015
  0
ENDBLK
  8
0
  0
BLOCK
  8
0
  2
*D765
 70
65
 10
0.000000000
 20
0.000000000
  3
*D
  0
TEXT
  8
3
 62
4
  6
CONTINUOUS
 72
5
 10
746.442519926
 20
377.434011642
 40
8.000000000
  1
537
 41
0.899999213
 11
765.642519926
 21
377.434011642
  0
LINE
  8
3
 62
4
  6
CONTINUOUS
 10
487.708325445
 20
169.124242424
 11
487.708325445
 21
373.134011642
  0
POLYLINE
  8
3
 62
4
  6
CONTINUOUS
 66
1
  0
VERTEX
  8
3
 10
489.708325445
 20
371.434011642
  0
VERTEX
  8
3
 10
487.708325445
 20
371.134011642
  0
VERTEX
  8
3
 10
489.708325445
 20
370.834011642
  0
SEQEND
  8
3
  0
LINE
  8
3
 62
4
  6
CONTINUOUS
 10
487.708325445
 20
371.134011642
 11
1024.328714408
 21
371.134011642
  0
POLYLINE
  8
3
 62
4
  6
CONTINUOUS
 66
1
  0
VERTEX
  8
3
 10
1022.328714408
 20
370.834011642
  0
VERTEX
  8
3
 10
1024.328714408
 20
371.134011642
  0
VERTEX
  8
3
 10
1022.328714408
 20
371.434011642
  0
SEQEND
  8
3
  0
LINE
  8
3
 62
4
  6
CONTINUOUS
 10
1024.328714408
 20
169.124242424
 11
1024.328714408
 21
373.134011642
  0
ENDBLK
  8
0
  0
BLOCK
  8
0
  2
*D766
 70
65
 10
0.000000000
 20
0.000000000
  3
*D
  0
TEXT
  8
3
 62
4
  6
CONTINUOUS
 72
5
 10
880.597617167
 20
364.379569703
 40
8.000000000
  1
268
 41
0.899999213
 11
899.797617167
 21
364.379569703
  0
LINE
  8
3
 62
4
  6
CONTINUOUS
 10
1024.328714408
 20
169.124242424
 11
1024.328714408
 21
360.079569703
  0
POLYLINE
  8
3
 62
4
  6
CONTINUOUS
 66
1
  0
VERTEX
  8
3
 10
1022.328714408
 20
357.779569703
  0
VERTEX
  8
3
 10
1024.328714408
 20
358.079569703
  0
VERTEX
  8
3
 10
1022.328714408
 20
358.379569703
  0
SEQEND
  8
3
  0
LINE
  8
3
 62
4
  6
CONTINUOUS
 10
1024.328714408
 20
358.079569703
 11
756.018519926
 21
358.079569703
  0
POLYLINE
  8
3
 62
4
  6
CONTINUOUS
 66
1
  0
VERTEX
  8
3
 10
758.018519926
 20
358.379569703
  0
VERTEX
  8
3
 10
756.018519926
 20
358.079569703
  0
VERTEX
  8
3
 10
758.018519926
 20
357.779569703
  0
SEQEND
  8
3
  0
LINE
  8
3
 62
4
  6
CONTINUOUS
 10
756.018519926
 20
346.095999957
 11
756.018519926
 21
360.079569703
  0
ENDBLK
  8
0
  0
BLOCK
  8
0
  2
*D767
 70
65
 10
0.000000000
 20
0.000000000
  3
*D
  0
TEXT
  8
3
 62
4
  6
CONTINUOUS
 72
5
 10
612.287422686
 20
364.787521015
 40
8.000000000
  1
268
 41
0.899999213
 11
631.487422686
 21
364.787521015
  0
LINE
  8
3
 62
4
  6
CONTINUOUS
 10
756.018519926
 20
340.934436906
 11
756.018519926
 21
360.487521015
  0
POLYLINE
  8
3
 62
4
  6
CONTINUOUS
 66
1
  0
VERTEX
  8
3
 10
754.018519926
 20
358.187521015
  0
VERTEX
  8
3
 10
756.018519926
 20
358.487521015
  0
VERTEX
  8
3
 10
754.018519926
 20
358.787521015
  0
SEQEND
  8
3
  0
LINE
  8
3
 62
4
  6
CONTINUOUS
 10
756.018519926
 20
358.487521015
 11
487.708325445
 21
358.487521015
  0
POLYLINE
  8
3
 62
4
  6
CONTINUOUS
 66
1
  0
VERTEX
  8
3
 10
489.708325445
 20
358.787521015
  0
VERTEX
  8
3
 10
487.708325445
 20
358.487521015
  0
VERTEX
  8
3
 10
489.708325445
 20
358.187521015
  0
SEQEND
  8
3
  0
LINE
  8
3
 62
4
  6
CONTINUOUS
 10
487.708325445
 20
169.124242424
 11
487.708325445
 21
360.487521015
  0
ENDBLK
  8
0
  0
BLOCK
  8
0
  2
*D768
 70
65
 10
0.000000000
 20
0.000000000
  3
*D
  0
TEXT
  8
3
 62
4
  6
CONTINUOUS
 72
5
 10
653.442519927
 20
352.395999957
 40
8.000000000
  1
186
 41
1.028570253
 11
672.642519927
 21
352.395999957
  0
LINE
  8
3
 62
4
  6
CONTINUOUS
 10
756.018519926
 20
340.934436906
 11
756.018519926
 21
348.095999957
  0
POLYLINE
  8
3
 62
4
  6
CONTINUOUS
 66
1
  0
VERTEX
  8
3
 10
754.018519926
 20
345.795999957
  0
VERTEX
  8
3
 10
756.018519926
 20
346.095999957
  0
VERTEX
  8
3
 10
754.018519926
 20
346.395999957
  0
SEQEND
  8
3
  0
LINE
  8
3
 62
4
  6
CONTINUOUS
 10
756.018519926
 20
346.095999957
 11
570.018519927
 21
346.095999957
  0
POLYLINE
  8
3
 62
4
  6
CONTINUOUS
 66
1
  0
VERTEX
  8
3
 10
572.018519927
 20
346.395999957
  0
VERTEX
  8
3
 10
570.018519927
 20
346.095999957
  0
VERTEX
  8
3
 10
572.018519927
 20
345.795999957
  0
SEQEND
  8
3
  0
LINE
  8
3
 62
4
  6
CONTINUOUS
 10
570.018519927
 20
327.345249300
 11
570.018519927
 21
348.095999957
  0
ENDBLK
  8
0
  0
BLOCK
  8
0
  2
*D769
 70
65
 10
0.000000000
 20
0.000000000
  3
*D
  0
TEXT
  8
3
 62
4
  6
CONTINUOUS
 72
5
 10
839.442519926
 20
352.395999957
 40
8.000000000
  1
186
 41
1.028570253
 11
858.642519926
 21
352.395999957
  0
LINE
  8
3
 62
4
  6
CONTINUOUS
 10
756.018519926
 20
340.934436906
 11
756.018519926
 21
348.095999957
  0
POLYLINE
  8
3
 62
4
  6
CONTINUOUS
 66
1
  0
VERTEX
  8
3
 10
758.018519926
 20
346.395999957
  0
VERTEX
  8
3
 10
756.018519926
 20
346.095999957
  0
VERTEX
  8
3
 10
758.018519926
 20
345.795999957
  0
SEQEND
  8
3
  0
LINE
  8
3
 62
4
  6
CONTINUOUS
 10
756.018519926
 20
346.095999957
 11
942.018519926
 21
346.095999957
  0
POLYLINE
  8
3
 62
4
  6
CONTINUOUS
 66
1
  0
VERTEX
  8
3
 10
940.018519926
 20
345.795999957
  0
VERTEX
  8
3
 10
942.018519926
 20
346.095999957
  0
VERTEX
  8
3
 10
940.018519926
 20
346.395999957
  0
SEQEND
  8
3
  0
LINE
  8
3
 62
4
  6
CONTINUOUS
 10
942.018519926
 20
327.345249300
 11
942.018519926
 21
348.095999957
  0
ENDBLK
  8
0
  0
BLOCK
  8
0
  2
*D770
 70
65
 10
0.000000000
 20
0.000000000
  3
*D
  0
TEXT
  8
3
 62
4
  6
CONTINUOUS
 72
5
 10
1072.868723241
 20
161.143148099
 40
8.000000000
  1
307
 41
0.959999232
 50
90.000000000
 11
1072.868723241
 21
180.343148099
  0
LINE
  8
3
 62
4
  6
CONTINUOUS
 10
756.018519926
 20
17.314047941
 11
1081.168723241
 21
17.314047941
  0
POLYLINE
  8
3
 62
4
  6
CONTINUOUS
 66
1
  0
VERTEX
  8
3
 10
1078.868723241
 20
19.314047941
  0
VERTEX
  8
3
 10
1079.168723241
 20
17.314047941
  0
VERTEX
  8
3
 10
1079.468723241
 20
19.314047941
  0
SEQEND
  8
3
  0
LINE
  8
3
 62
4
  6
CONTINUOUS
 10
1079.168723241
 20
17.314047941
 11
1079.168723241
 21
324.124248256
  0
POLYLINE
  8
3
 62
4
  6
CONTINUOUS
 66
1
  0
VERTEX
  8
3
 10
1079.468723241
 20
322.124248256
  0
VERTEX
  8
3
 10
1079.168723241
 20
324.124248256
  0
VERTEX
  8
3
 10
1078.868723241
 20
322.124248256
  0
SEQEND
  8
3
  0
LINE
  8
3
 62
4
  6
CONTINUOUS
 10
756.018519926
 20
324.124248256
 11
1081.168723241
 21
324.124248256
  0
ENDBLK
  8
0
  0
BLOCK
  8
0
  2
*D771
 70
65
 10
0.000000000
 20
0.000000000
  3
*D
  0
TEXT
  8
3
 62
4
  6
CONTINUOUS
 72
5
 10
1050.019395405
 20
235.453339665
 40
8.000000000
  1
152
 41
1.028570253
 50
90.000000000
 11
1050.019395405
 21
254.653339665
  0
LINE
  8
3
 62
4
  6
CONTINUOUS
 10
1044.328714408
 20
169.124242424
 11
1058.319395405
 21
169.124242424
  0
POLYLINE
  8
3
 62
4
  6
CONTINUOUS
 66
1
  0
VERTEX
  8
3
 10
1056.019395405
 20
171.124242424
  0
VERTEX
  8
3
 10
1056.319395405
 20
169.124242424
  0
VERTEX
  8
3
 10
1056.619395405
 20
171.124242424
  0
SEQEND
  8
3
  0
LINE
  8
3
 62
4
  6
CONTINUOUS
 10
1056.319395405
 20
169.124242424
 11
1056.319395405
 21
320.934436906
  0
POLYLINE
  8
3
 62
4
  6
CONTINUOUS
 66
1
  0
VERTEX
  8
3
 10
1056.619395405
 20
318.934436906
  0
VERTEX
  8
3
 10
1056.319395405
 20
320.934436906
  0
VERTEX
  8
3
 10
1056.019395405
 20
318.934436906
  0
SEQEND
  8
3
  0
LINE
  8
3
 62
4
  6
CONTINUOUS
 10
756.018519926
 20
320.934436906
 11
1058.319395405
 21
320.934436906
  0
ENDBLK
  8
0
  0
BLOCK
  8
0
  2
*D772
 70
65
 10
0.000000000
 20
0.000000000
  3
*D
  0
TEXT
  8
3
 62
4
  6
CONTINUOUS
 72
5
 10
1050.206021092
 20
83.643145182
 40
8.000000000
  1
152
 41
1.028570253
 50
90.000000000
 11
1050.206021092
 21
102.843145182
  0
LINE
  8
3
 62
4
  6
CONTINUOUS
 10
1044.328714408
 20
169.124242424
 11
1058.506021092
 21
169.124242424
  0
POLYLINE
  8
3
 62
4
  6
CONTINUOUS
 66
1
  0
VERTEX
  8
3
 10
1056.806021092
 20
167.124242424
  0
VERTEX
  8
3
 10
1056.506021092
 20
169.124242424
  0
VERTEX
  8
3
 10
1056.206021092
 20
167.124242424
  0
SEQEND
  8
3
  0
LINE
  8
3
 62
4
  6
CONTINUOUS
 10
1056.506021092
 20
169.124242424
 11
1056.506021092
 21
17.314047941
  0
POLYLINE
  8
3
 62
4
  6
CONTINUOUS
 66
1
  0
VERTEX
  8
3
 10
1056.206021092
 20
19.314047941
  0
VERTEX
  8
3
 10
1056.506021092
 20
17.314047941
  0
VERTEX
  8
3
 10
1056.806021092
 20
19.314047941
  0
SEQEND
  8
3
  0
LINE
  8
3
 62
4
  6
CONTINUOUS
 10
756.018519926
 20
17.314047941
 11
1058.506021092
 21
17.314047941
  0
ENDBLK
  8
0
  0
BLOCK
  8
0
  2
*D920
 70
65
 10
0.000000000
 20
0.000000000
  3
*D
  0
TEXT
  8
3
 62
4
  6
CONTINUOUS
 72
5
 10
1429.187671296
 20
327.768900425
 40
8.000000000
  1
3
 41
0.899996850
 50
90.000000000
 11
1429.187671296
 21
332.568900425
  0
LINE
  8
3
 62
4
  6
CONTINUOUS
 10
1397.982374717
 20
320.934436905
 11
1437.487671296
 21
320.934436905
  0
POLYLINE
  8
3
 62
4
  6
CONTINUOUS
 66
1
  0
VERTEX
  8
3
 10
1435.187671296
 20
318.934436905
  0
VERTEX
  8
3
 10
1435.487671296
 20
320.934436905
  0
SEQEND
  8
3
  0
POLYLINE
  8
3
 62
4
  6
CONTINUOUS
 66
1
  0
VERTEX
  8
3
 10
1435.487671296
 20
317.934436905
  0
VERTEX
  8
3
 10
1435.487671296
 20
320.934436905
  0
VERTEX
  8
3
 10
1435.787671296
 20
318.934436905
  0
SEQEND
  8
3
  0
LINE
  8
3
 62
4
  6
CONTINUOUS
 10
1435.487671296
 20
320.934436905
 11
1435.487671296
 21
324.124242424
  0
POLYLINE
  8
3
 62
4
  6
CONTINUOUS
 66
1
  0
VERTEX
  8
3
 10
1435.787671296
 20
326.124242424
  0
VERTEX
  8
3
 10
1435.487671296
 20
324.124242424
  0
SEQEND
  8
3
  0
POLYLINE
  8
3
 62
4
  6
CONTINUOUS
 66
1
  0
VERTEX
  8
3
 10
1435.487671296
 20
327.124242424
  0
VERTEX
  8
3
 10
1435.487671296
 20
324.124242424
  0
VERTEX
  8
3
 10
1435.187671296
 20
326.124242424
  0
SEQEND
  8
3
  0
LINE
  8
3
 62
4
  6
CONTINUOUS
 10
1385.982374717
 20
324.124242424
 11
1437.487671296
 21
324.124242424
  0
POLYLINE
  8
3
 62
4
  6
CONTINUOUS
 66
1
  0
VERTEX
  8
3
 10
1435.487671296
 20
324.124242424
  0
VERTEX
  8
3
 10
1435.487671296
 20
334.520900425
  0
SEQEND
  8
3
  0
ENDBLK
  8
0
  0
BLOCK
  8
0
  2
*D976
 70
65
 10
0.000000000
 20
0.000000000
  3
*D
  0
TEXT
  8
3
 62
4
  6
CONTINUOUS
 72
5
 10
1115.769785316
 20
-226.323492143
 40
8.000000000
  1
307
 41
0.959999232
 50
90.000000000
 11
1115.769785316
 21
-207.123492143
  0
LINE
  8
3
 62
4
  6
CONTINUOUS
 10
756.018519926
 20
-370.152589981
 11
1124.069785316
 21
-370.152589981
  0
POLYLINE
  8
3
 62
4
  6
CONTINUOUS
 66
1
  0
VERTEX
  8
3
 10
1121.769785316
 20
-368.152589981
  0
VERTEX
  8
3
 10
1122.069785316
 20
-370.152589981
  0
VERTEX
  8
3
 10
1122.369785316
 20
-368.152589981
  0
SEQEND
  8
3
  0
LINE
  8
3
 62
4
  6
CONTINUOUS
 10
1122.069785316
 20
-370.152589981
 11
1122.069785316
 21
-63.342394306
  0
POLYLINE
  8
3
 62
4
  6
CONTINUOUS
 66
1
  0
VERTEX
  8
3
 10
1122.369785316
 20
-65.342394306
  0
VERTEX
  8
3
 10
1122.069785316
 20
-63.342394306
  0
VERTEX
  8
3
 10
1121.769785316
 20
-65.342394306
  0
SEQEND
  8
3
  0
LINE
  8
3
 62
4
  6
CONTINUOUS
 10
756.018519926
 20
-63.342394306
 11
1124.069785316
 21
-63.342394306
  0
ENDBLK
  8
0
  0
BLOCK
  8
0
  2
*D977
 70
65
 10
0.000000000
 20
0.000000000
  3
*D
  0
TEXT
  8
3
 62
4
  6
CONTINUOUS
 72
5
 10
1049.989054738
 20
333.013487927
 40
8.000000000
  1
3
 41
0.899996850
 50
90.000000000
 11
1049.989054738
 21
337.813487927
  0
LINE
  8
3
 62
4
  6
CONTINUOUS
 10
756.018519926
 20
320.934436906
 11
1058.289054738
 21
320.934436906
  0
POLYLINE
  8
3
 62
4
  6
CONTINUOUS
 66
1
  0
VERTEX
  8
3
 10
1055.989054738
 20
318.934436906
  0
VERTEX
  8
3
 10
1056.289054738
 20
320.934436906
  0
SEQEND
  8
3
  0
POLYLINE
  8
3
 62
4
  6
CONTINUOUS
 66
1
  0
VERTEX
  8
3
 10
1056.289054738
 20
317.934436906
  0
VERTEX
  8
3
 10
1056.289054738
 20
320.934436906
  0
VERTEX
  8
3
 10
1056.589054738
 20
318.934436906
  0
SEQEND
  8
3
  0
LINE
  8
3
 62
4
  6
CONTINUOUS
 10
1056.289054738
 20
320.934436906
 11
1056.289054738
 21
324.124248256
  0
POLYLINE
  8
3
 62
4
  6
CONTINUOUS
 66
1
  0
VERTEX
  8
3
 10
1056.589054738
 20
326.124248256
  0
VERTEX
  8
3
 10
1056.289054738
 20
324.124248256
  0
SEQEND
  8
3
  0
POLYLINE
  8
3
 62
4
  6
CONTINUOUS
 66
1
  0
VERTEX
  8
3
 10
1056.289054738
 20
327.124248256
  0
VERTEX
  8
3
 10
1056.289054738
 20
324.124248256
  0
VERTEX
  8
3
 10
1055.989054738
 20
326.124248256
  0
SEQEND
  8
3
  0
LINE
  8
3
 62
4
  6
CONTINUOUS
 10
756.018519926
 20
324.124248256
 11
1058.289054738
 21
324.124248256
  0
POLYLINE
  8
3
 62
4
  6
CONTINUOUS
 66
1
  0
VERTEX
  8
3
 10
1056.289054738
 20
324.124248256
  0
VERTEX
  8
3
 10
1056.289054738
 20
339.765487927
  0
SEQEND
  8
3
  0
ENDBLK
  8
0
  0
ENDSEC
  0
SECTION
  2
ENTITIES
  0
ARC
  8
1
 62
7
  6
CONTINUOUS
 10
625.118519927
 20
-368.332395498
 40
0.500000000
 50
0.000000000
 51
90.000000000
  0
ARC
  8
1
 62
7
  6
CONTINUOUS
 10
616.918519927
 20
-368.332395498
 40
0.500000000
 50
90.000000000
 51
180.000000000
  0
ARC
  8
1
 62
7
  6
CONTINUOUS
 10
616.918519927
 20
-368.630683649
 40
0.500000000
 50
180.000000000
 51
224.918048915
  0
ARC
  8
1
 62
7
  6
CONTINUOUS
 10
625.118519927
 20
-368.630683649
 40
0.500000000
 50
315.081951085
 51
0.000000000
  0
LINE
  8
1
 62
7
  6
CONTINUOUS
 10
616.418526102
 20
-368.332402779
 11
616.418526102
 21
-368.630679323
  0
LINE
  8
1
 62
7
  6
CONTINUOUS
 10
625.618517924
 20
-368.630679323
 11
625.618517924
 21
-368.332402779
  0
ARC
  8
1
 62
7
  6
CONTINUOUS
 10
621.018519927
 20
-364.542395498
 40
6.290000000
 50
288.539902705
 51
315.081951085
  0
ARC
  8
1
 62
7
  6
CONTINUOUS
 10
621.018519927
 20
-364.542395498
 40
6.290000000
 50
224.918048915
 51
251.460097295
  0
LINE
  8
1
 62
7
  6
CONTINUOUS
 10
623.018518616
 20
-367.432402446
 11
623.018518616
 21
-364.342393352
  0
LINE
  8
1
 62
7
  6
CONTINUOUS
 10
619.018525411
 20
-364.342393352
 11
619.018525411
 21
-367.432402446
  0
ARC
  8
1
 62
7
  6
CONTINUOUS
 10
895.118519927
 20
-368.332395498
 40
0.500000000
 50
0.000000000
 51
90.000000000
  0
ARC
  8
1
 62
7
  6
CONTINUOUS
 10
886.918519927
 20
-368.332395498
 40
0.500000000
 50
90.000000000
 51
180.000000000
  0
ARC
  8
1
 62
7
  6
CONTINUOUS
 10
886.918519927
 20
-368.630683649
 40
0.500000000
 50
180.000000000
 51
224.918048915
  0
ARC
  8
1
 62
7
  6
CONTINUOUS
 10
895.118519927
 20
-368.630683649
 40
0.500000000
 50
315.081951085
 51
0.000000000
  0
LINE
  8
1
 62
7
  6
CONTINUOUS
 10
886.418521930
 20
-368.332402779
 11
886.418521930
 21
-368.630679323
  0
LINE
  8
1
 62
7
  6
CONTINUOUS
 10
895.618513752
 20
-368.630679323
 11
895.618513752
 21
-368.332402779
  0
ARC
  8
1
 62
7
  6
CONTINUOUS
 10
891.018519927
 20
-364.542395498
 40
6.290000000
 50
288.539902705
 51
315.081951085
  0
ARC
  8
1
 62
7
  6
CONTINUOUS
 10
891.018519927
 20
-364.542395498
 40
6.290000000
 50
224.918048915
 51
251.460097295
  0
LINE
  8
1
 62
7
  6
CONTINUOUS
 10
893.018514443
 20
-367.432402446
 11
893.018514443
 21
-364.342393352
  0
LINE
  8
1
 62
7
  6
CONTINUOUS
 10
889.018521238
 20
-364.342393352
 11
889.018521238
 21
-367.432402446
  0
LINE
  8
1
 62
7
  6
CONTINUOUS
 10
885.018513132
 20
-367.432402446
 11
885.018513132
 21
-367.832394316
  0
LINE
  8
1
 62
7
  6
CONTINUOUS
 10
897.018522550
 20
-367.832394316
 11
897.018522550
 21
-367.432402446
  0
LINE
  8
1
 62
7
  6
CONTINUOUS
 10
615.018517304
 20
-367.432402446
 11
615.018517304
 21
-367.832394316
  0
LINE
  8
1
 62
7
  6
CONTINUOUS
 10
627.018526722
 20
-367.832394316
 11
627.018526722
 21
-367.432402446
  0
CIRCLE
  8
1
 62
7
  6
CONTINUOUS
 10
791.018519927
 20
-235.842395498
 40
9.000000000
  0
CIRCLE
  8
1
 62
7
  6
CONTINUOUS
 10
791.018519927
 20
-235.842395498
 40
12.500000000
  0
CIRCLE
  8
1
 62
7
  6
CONTINUOUS
 10
611.018519927
 20
-235.842395498
 40
12.500000000
  0
CIRCLE
  8
1
 62
7
  6
CONTINUOUS
 10
971.018519927
 20
-235.842395498
 40
12.500000000
  0
CIRCLE
  8
1
 62
7
  6
CONTINUOUS
 10
756.018519927
 20
-213.342395498
 40
4.600000000
  0
LINE
  8
1
 62
7
  6
CONTINUOUS
 10
620.268524219
 20
-370.661141350
 11
620.268524219
 21
-370.458604767
  0
LINE
  8
1
 62
7
  6
CONTINUOUS
 10
619.768515755
 20
-370.661141350
 11
619.930401970
 21
-370.688648893
  0
LINE
  8
1
 62
7
  6
CONTINUOUS
 10
619.930401970
 20
-370.688648893
 11
620.076537658
 21
-370.702253653
  0
LINE
  8
1
 62
7
  6
CONTINUOUS
 10
620.076537658
 20
-370.702253653
 11
620.186940361
 21
-370.700271799
  0
LINE
  8
1
 62
7
  6
CONTINUOUS
 10
620.186940361
 20
-370.700271799
 11
620.252147842
 21
-370.683686807
  0
LINE
  8
1
 62
7
  6
CONTINUOUS
 10
620.252147842
 20
-370.683686807
 11
620.268524219
 21
-370.661141350
  0
ARC
  8
1
 62
7
  6
CONTINUOUS
 10
621.018519927
 20
-364.542395498
 40
6.245126100
 50
251.321971324
 51
258.453913306
  0
LINE
  8
1
 62
7
  6
CONTINUOUS
 10
619.018525411
 20
-370.505960657
 11
619.018525411
 21
-370.458604767
  0
LINE
  8
1
 62
7
  6
CONTINUOUS
 10
623.018518616
 20
-370.458604767
 11
623.018518616
 21
-370.505960657
  0
ARC
  8
1
 62
7
  6
CONTINUOUS
 10
621.018519927
 20
-364.542395498
 40
6.245126100
 50
281.546086694
 51
288.678028676
  0
ARC
  8
1
 62
7
  6
CONTINUOUS
 10
622.018516589
 20
-369.889307194
 40
0.811311502
 50
252.052881356
 51
287.947118644
  0
LINE
  8
1
 62
7
  6
CONTINUOUS
 10
621.768519808
 20
-370.458604767
 11
621.768519808
 21
-370.661141350
  0
ARC
  8
1
 62
7
  6
CONTINUOUS
 10
621.018519927
 20
-364.542395498
 40
5.963564370
 50
262.775138609
 51
277.224861391
  0
LINE
  8
1
 62
7
  6
CONTINUOUS
 10
890.268520046
 20
-370.661141350
 11
890.268520046
 21
-370.458604767
  0
LINE
  8
1
 62
7
  6
CONTINUOUS
 10
889.768526484
 20
-370.661141350
 11
889.930412699
 21
-370.688648893
  0
LINE
  8
1
 62
7
  6
CONTINUOUS
 10
889.930412699
 20
-370.688648893
 11
890.076533485
 21
-370.702253653
  0
LINE
  8
1
 62
7
  6
CONTINUOUS
 10
890.076533485
 20
-370.702253653
 11
890.186936189
 21
-370.700271799
  0
LINE
  8
1
 62
7
  6
CONTINUOUS
 10
890.186936189
 20
-370.700271799
 11
890.252158571
 21
-370.683686807
  0
LINE
  8
1
 62
7
  6
CONTINUOUS
 10
890.252158571
 20
-370.683686807
 11
890.268520046
 21
-370.661141350
  0
ARC
  8
1
 62
7
  6
CONTINUOUS
 10
891.018519927
 20
-364.542395498
 40
6.245126100
 50
251.321971324
 51
258.453913306
  0
LINE
  8
1
 62
7
  6
CONTINUOUS
 10
889.018521238
 20
-370.505960657
 11
889.018521238
 21
-370.458604767
  0
LINE
  8
1
 62
7
  6
CONTINUOUS
 10
893.018514443
 20
-370.458604767
 11
893.018514443
 21
-370.505960657
  0
ARC
  8
1
 62
7
  6
CONTINUOUS
 10
891.018519927
 20
-364.542395498
 40
6.245126100
 50
281.546086694
 51
288.678028676
  0
ARC
  8
1
 62
7
  6
CONTINUOUS
 10
892.018519867
 20
-369.889255077
 40
0.811363380
 50
252.053514879
 51
287.946485119
  0
LINE
  8
1
 62
7
  6
CONTINUOUS
 10
891.768515635
 20
-370.458604767
 11
891.768515636
 21
-370.661141350
  0
ARC
  8
1
 62
7
  6
CONTINUOUS
 10
891.018519927
 20
-364.542395498
 40
5.963564370
 50
262.775138609
 51
277.224861391
  0
LINE
  8
1
 62
7
  6
CONTINUOUS
 10
893.443406154
 20
-367.432402446
 11
888.593629528
 21
-367.432402446
  0
LINE
  8
1
 62
7
  6
CONTINUOUS
 10
897.018522550
 20
-367.832394316
 11
885.018513132
 21
-367.832394316
  0
LINE
  8
1
 62
7
  6
CONTINUOUS
 10
623.443410326
 20
-367.432402446
 11
618.768856455
 21
-367.432402446
  0
LINE
  8
1
 62
7
  6
CONTINUOUS
 10
627.018526722
 20
-367.832394316
 11
615.018517304
 21
-367.832394316
  0
LINE
  8
1
 62
7
  6
CONTINUOUS
 10
1018.518508006
 20
-333.342397584
 11
1018.518508006
 21
-313.342394306
  0
LINE
  8
1
 62
7
  6
CONTINUOUS
 10
1017.218530704
 20
-333.342397584
 11
1018.518508006
 21
-333.342397584
  0
LINE
  8
1
 62
7
  6
CONTINUOUS
 10
1017.218530704
 20
-313.342394306
 11
1018.518508006
 21
-313.342394306
  0
ARC
  8
1
 62
7
  6
CONTINUOUS
 10
866.018519927
 20
-315.842395498
 40
2.500000000
 50
90.000000000
 51
270.000000000
  0
LINE
  8
1
 62
7
  6
CONTINUOUS
 10
891.018525291
 20
-318.342396988
 11
866.018519331
 21
-318.342396988
  0
ARC
  8
1
 62
7
  6
CONTINUOUS
 10
891.018519927
 20
-315.842395498
 40
2.500000000
 50
270.000000000
 51
90.000000000
  0
LINE
  8
1
 62
7
  6
CONTINUOUS
 10
866.018519331
 20
-313.342394306
 11
891.018525291
 21
-313.342394306
  0
ARC
  8
1
 62
7
  6
CONTINUOUS
 10
781.018519927
 20
-315.842395498
 40
2.500000000
 50
90.000000000
 51
270.000000000
  0
ARC
  8
1
 62
7
  6
CONTINUOUS
 10
806.018519927
 20
-315.842395498
 40
2.500000000
 50
270.000000000
 51
90.000000000
  0
LINE
  8
1
 62
7
  6
CONTINUOUS
 10
781.018520300
 20
-313.342394306
 11
806.018520672
 21
-313.342394306
  0
ARC
  8
1
 62
7
  6
CONTINUOUS
 10
706.018519927
 20
-315.842395498
 40
2.500000000
 50
90.000000000
 51
270.000000000
  0
LINE
  8
1
 62
7
  6
CONTINUOUS
 10
731.018519554
 20
-318.342396988
 11
706.018519182
 21
-318.342396988
  0
ARC
  8
1
 62
7
  6
CONTINUOUS
 10
731.018519927
 20
-315.842395498
 40
2.500000000
 50
270.000000000
 51
90.000000000
  0
LINE
  8
1
 62
7
  6
CONTINUOUS
 10
706.018519182
 20
-313.342394306
 11
731.018519554
 21
-313.342394306
  0
ARC
  8
1
 62
7
  6
CONTINUOUS
 10
646.018519927
 20
-315.842395498
 40
2.500000000
 50
270.000000000
 51
90.000000000
  0
LINE
  8
1
 62
7
  6
CONTINUOUS
 10
621.018514563
 20
-313.342394306
 11
646.018520523
 21
-313.342394306
  0
ARC
  8
1
 62
7
  6
CONTINUOUS
 10
621.018519927
 20
-315.842395498
 40
2.500000000
 50
90.000000000
 51
270.000000000
  0
LINE
  8
1
 62
7
  6
CONTINUOUS
 10
646.018520523
 20
-318.342396988
 11
621.018514563
 21
-318.342396988
  0
ARC
  8
1
 62
7
  6
CONTINUOUS
 10
846.018519927
 20
-265.842395498
 40
2.500000000
 50
90.000000000
 51
270.000000000
  0
LINE
  8
1
 62
7
  6
CONTINUOUS
 10
871.018522013
 20
-268.342396243
 11
846.018523503
 21
-268.342396243
  0
ARC
  8
1
 62
7
  6
CONTINUOUS
 10
871.018519927
 20
-265.842395498
 40
2.500000000
 50
270.000000000
 51
90.000000000
  0
LINE
  8
1
 62
7
  6
CONTINUOUS
 10
846.018523503
 20
-263.342397286
 11
871.018522013
 21
-263.342397286
  0
ARC
  8
1
 62
7
  6
CONTINUOUS
 10
781.018519927
 20
-265.842395498
 40
2.500000000
 50
90.000000000
 51
270.000000000
  0
LINE
  8
1
 62
7
  6
CONTINUOUS
 10
806.018520672
 20
-268.342396243
 11
781.018520300
 21
-268.342396243
  0
ARC
  8
1
 62
7
  6
CONTINUOUS
 10
806.018519927
 20
-265.842395498
 40
2.500000000
 50
270.000000000
 51
90.000000000
  0
LINE
  8
1
 62
7
  6
CONTINUOUS
 10
781.018520300
 20
-263.342397286
 11
806.018520672
 21
-263.342397286
  0
ARC
  8
1
 62
7
  6
CONTINUOUS
 10
706.018519927
 20
-265.842395498
 40
2.500000000
 50
90.000000000
 51
270.000000000
  0
LINE
  8
1
 62
7
  6
CONTINUOUS
 10
731.018519554
 20
-268.342396243
 11
706.018519182
 21
-268.342396243
  0
ARC
  8
1
 62
7
  6
CONTINUOUS
 10
731.018519927
 20
-265.842395498
 40
2.500000000
 50
270.000000000
 51
90.000000000
  0
LINE
  8
1
 62
7
  6
CONTINUOUS
 10
706.018519182
 20
-263.342397286
 11
731.018519554
 21
-263.342397286
  0
ARC
  8
1
 62
7
  6
CONTINUOUS
 10
666.018519927
 20
-265.842395498
 40
2.500000000
 50
270.000000000
 51
90.000000000
  0
LINE
  8
1
 62
7
  6
CONTINUOUS
 10
641.018517841
 20
-263.342397286
 11
666.018516351
 21
-263.342397286
  0
ARC
  8
1
 62
7
  6
CONTINUOUS
 10
641.018519927
 20
-265.842395498
 40
2.500000000
 50
90.000000000
 51
270.000000000
  0
LINE
  8
1
 62
7
  6
CONTINUOUS
 10
666.018516351
 20
-268.342396243
 11
641.018517841
 21
-268.342396243
  0
ARC
  8
1
 62
7
  6
CONTINUOUS
 10
996.018519927
 20
-315.842395498
 40
2.500000000
 50
180.000000000
 51
0.000000000
  0
LINE
  8
1
 62
7
  6
CONTINUOUS
 10
998.518527080
 20
-295.842396094
 11
998.518527080
 21
-315.842391922
  0
ARC
  8
1
 62
7
  6
CONTINUOUS
 10
996.018519927
 20
-295.842395498
 40
2.500000000
 50
0.000000000
 51
180.000000000
  0
LINE
  8
1
 62
7
  6
CONTINUOUS
 10
993.518516947
 20
-315.842391922
 11
993.518516947
 21
-295.842396094
  0
ARC
  8
1
 62
7
  6
CONTINUOUS
 10
516.018519927
 20
-315.842395498
 40
2.500000000
 50
180.000000000
 51
0.000000000
  0
LINE
  8
1
 62
7
  6
CONTINUOUS
 10
518.518522907
 20
-295.842396094
 11
518.518522907
 21
-315.842391922
  0
ARC
  8
1
 62
7
  6
CONTINUOUS
 10
516.018519927
 20
-295.842395498
 40
2.500000000
 50
0.000000000
 51
180.000000000
  0
LINE
  8
1
 62
7
  6
CONTINUOUS
 10
513.518512774
 20
-315.842391922
 11
513.518512774
 21
-295.842396094
  0
LINE
  8
1
 62
7
  6
CONTINUOUS
 10
806.018520672
 20
-318.342396988
 11
781.018520300
 21
-318.342396988
  0
ARC
  8
1
 62
7
  6
CONTINUOUS
 10
861.018519927
 20
-215.842395498
 40
2.500000000
 50
90.000000000
 51
270.000000000
  0
LINE
  8
1
 62
7
  6
CONTINUOUS
 10
886.018515159
 20
-218.342395498
 11
861.018516649
 21
-218.342395498
  0
ARC
  8
1
 62
7
  6
CONTINUOUS
 10
886.018519927
 20
-215.842395498
 40
2.500000000
 50
270.000000000
 51
90.000000000
  0
ARC
  8
1
 62
7
  6
CONTINUOUS
 10
806.018519927
 20
-215.842395498
 40
2.500000000
 50
90.000000000
 51
270.000000000
  0
LINE
  8
1
 62
7
  6
CONTINUOUS
 10
831.018522907
 20
-218.342395498
 11
806.018520672
 21
-218.342395498
  0
ARC
  8
1
 62
7
  6
CONTINUOUS
 10
831.018519927
 20
-215.842395498
 40
2.500000000
 50
270.000000000
 51
90.000000000
  0
LINE
  8
1
 62
7
  6
CONTINUOUS
 10
681.018516947
 20
-213.342395610
 11
706.018519182
 21
-213.342395610
  0
ARC
  8
1
 62
7
  6
CONTINUOUS
 10
626.018519927
 20
-215.842395498
 40
2.500000000
 50
90.000000000
 51
270.000000000
  0
ARC
  8
1
 62
7
  6
CONTINUOUS
 10
976.018519927
 20
-95.842395498
 40
2.500000000
 50
90.000000000
 51
270.000000000
  0
LINE
  8
1
 62
7
  6
CONTINUOUS
 10
991.018519331
 20
-98.342398180
 11
976.018518735
 21
-98.342398180
  0
ARC
  8
1
 62
7
  6
CONTINUOUS
 10
991.018519927
 20
-95.842395498
 40
2.500000000
 50
270.000000000
 51
90.000000000
  0
ARC
  8
1
 62
7
  6
CONTINUOUS
 10
861.018519927
 20
-95.842395498
 40
2.500000000
 50
90.000000000
 51
270.000000000
  0
LINE
  8
1
 62
7
  6
CONTINUOUS
 10
886.018515159
 20
-98.342398180
 11
861.018516649
 21
-98.342398180
  0
ARC
  8
1
 62
7
  6
CONTINUOUS
 10
886.018519927
 20
-95.842395498
 40
2.500000000
 50
270.000000000
 51
90.000000000
  0
LINE
  8
1
 62
7
  6
CONTINUOUS
 10
861.018516649
 20
-93.342395498
 11
886.018515159
 21
-93.342395498
  0
LINE
  8
1
 62
7
  6
CONTINUOUS
 10
831.018522907
 20
-98.342398180
 11
806.018520672
 21
-98.342398180
  0
ARC
  8
1
 62
7
  6
CONTINUOUS
 10
831.018519927
 20
-95.842395498
 40
2.500000000
 50
270.000000000
 51
90.000000000
  0
LINE
  8
1
 62
7
  6
CONTINUOUS
 10
706.018519182
 20
-98.342398180
 11
681.018516947
 21
-98.342398180
  0
ARC
  8
1
 62
7
  6
CONTINUOUS
 10
706.018519927
 20
-95.842395498
 40
2.500000000
 50
270.000000000
 51
90.000000000
  0
ARC
  8
1
 62
7
  6
CONTINUOUS
 10
521.018519927
 20
-95.842395498
 40
2.500000000
 50
90.000000000
 51
270.000000000
  0
ARC
  8
1
 62
7
  6
CONTINUOUS
 10
516.018519927
 20
-105.842395498
 40
2.500000000
 50
0.000000000
 51
180.000000000
  0
LINE
  8
1
 62
7
  6
CONTINUOUS
 10
513.518512774
 20
-120.842399074
 11
513.518512774
 21
-105.842398478
  0
LINE
  8
1
 62
7
  6
CONTINUOUS
 10
518.518522907
 20
-105.842398478
 11
518.518522907
 21
-120.842399074
  0
LINE
  8
1
 62
7
  6
CONTINUOUS
 10
861.018516649
 20
-213.342395610
 11
886.018515159
 21
-213.342395610
  0
ARC
  8
1
 62
7
  6
CONTINUOUS
 10
681.018519927
 20
-215.842395498
 40
2.500000000
 50
90.000000000
 51
270.000000000
  0
ARC
  8
1
 62
7
  6
CONTINUOUS
 10
706.018519927
 20
-215.842395498
 40
2.500000000
 50
270.000000000
 51
90.000000000
  0
LINE
  8
1
 62
7
  6
CONTINUOUS
 10
626.018524695
 20
-213.342395610
 11
651.018523205
 21
-213.342395610
  0
ARC
  8
1
 62
7
  6
CONTINUOUS
 10
651.018519927
 20
-215.842395498
 40
2.500000000
 50
270.000000000
 51
90.000000000
  0
LINE
  8
1
 62
7
  6
CONTINUOUS
 10
651.018523205
 20
-218.342395498
 11
626.018524695
 21
-218.342395498
  0
LINE
  8
1
 62
7
  6
CONTINUOUS
 10
513.518512774
 20
-248.842395841
 11
513.518512774
 21
-228.842395357
  0
ARC
  8
1
 62
7
  6
CONTINUOUS
 10
516.018519927
 20
-228.842395498
 40
2.500000000
 50
0.000000000
 51
180.000000000
  0
LINE
  8
1
 62
7
  6
CONTINUOUS
 10
976.018518735
 20
-93.342395498
 11
991.018519331
 21
-93.342395498
  0
ARC
  8
1
 62
7
  6
CONTINUOUS
 10
516.018519927
 20
-248.842395498
 40
2.500000000
 50
180.000000000
 51
0.000000000
  0
LINE
  8
1
 62
7
  6
CONTINUOUS
 10
518.518522907
 20
-185.842396690
 11
518.518522907
 21
-205.842395312
  0
ARC
  8
1
 62
7
  6
CONTINUOUS
 10
516.018519927
 20
-205.842395498
 40
2.500000000
 50
180.000000000
 51
0.000000000
  0
LINE
  8
1
 62
7
  6
CONTINUOUS
 10
513.518512774
 20
-205.842395312
 11
513.518512774
 21
-185.842396690
  0
ARC
  8
1
 62
7
  6
CONTINUOUS
 10
516.018519927
 20
-185.842395498
 40
2.500000000
 50
0.000000000
 51
180.000000000
  0
LINE
  8
1
 62
7
  6
CONTINUOUS
 10
998.518527080
 20
-228.842395357
 11
998.518527080
 21
-248.842395841
  0
ARC
  8
1
 62
7
  6
CONTINUOUS
 10
806.018519927
 20
-95.842395498
 40
2.500000000
 50
90.000000000
 51
270.000000000
  0
LINE
  8
1
 62
7
  6
CONTINUOUS
 10
806.018520672
 20
-93.342395498
 11
831.018522907
 21
-93.342395498
  0
ARC
  8
1
 62
7
  6
CONTINUOUS
 10
516.018519927
 20
-120.842395498
 40
2.500000000
 50
180.000000000
 51
0.000000000
  0
LINE
  8
1
 62
7
  6
CONTINUOUS
 10
993.518516947
 20
-205.842395312
 11
993.518516947
 21
-185.842396690
  0
ARC
  8
1
 62
7
  6
CONTINUOUS
 10
681.018519927
 20
-95.842395498
 40
2.500000000
 50
90.000000000
 51
270.000000000
  0
LINE
  8
1
 62
7
  6
CONTINUOUS
 10
681.018516947
 20
-93.342395498
 11
706.018519182
 21
-93.342395498
  0
LINE
  8
1
 62
7
  6
CONTINUOUS
 10
651.018523205
 20
-98.342398180
 11
626.018524695
 21
-98.342398180
  0
ARC
  8
1
 62
7
  6
CONTINUOUS
 10
626.018519927
 20
-95.842395498
 40
2.500000000
 50
90.000000000
 51
270.000000000
  0
LINE
  8
1
 62
7
  6
CONTINUOUS
 10
626.018524695
 20
-93.342395498
 11
651.018523205
 21
-93.342395498
  0
ARC
  8
1
 62
7
  6
CONTINUOUS
 10
651.018519927
 20
-95.842395498
 40
2.500000000
 50
270.000000000
 51
90.000000000
  0
LINE
  8
1
 62
7
  6
CONTINUOUS
 10
521.018520523
 20
-93.342395498
 11
536.018521119
 21
-93.342395498
  0
ARC
  8
1
 62
7
  6
CONTINUOUS
 10
536.018519927
 20
-95.842395498
 40
2.500000000
 50
270.000000000
 51
90.000000000
  0
LINE
  8
1
 62
7
  6
CONTINUOUS
 10
536.018521119
 20
-98.342398180
 11
521.018520523
 21
-98.342398180
  0
LINE
  8
1
 62
7
  6
CONTINUOUS
 10
993.518516947
 20
-248.842395841
 11
993.518516947
 21
-228.842395357
  0
LINE
  8
1
 62
7
  6
CONTINUOUS
 10
998.518527080
 20
-105.842398478
 11
998.518527080
 21
-120.842399074
  0
ARC
  8
1
 62
7
  6
CONTINUOUS
 10
996.018519927
 20
-120.842395498
 40
2.500000000
 50
180.000000000
 51
0.000000000
  0
ARC
  8
1
 62
7
  6
CONTINUOUS
 10
996.018519927
 20
-205.842395498
 40
2.500000000
 50
180.000000000
 51
0.000000000
  0
ARC
  8
1
 62
7
  6
CONTINUOUS
 10
996.018519927
 20
-228.842395498
 40
2.500000000
 50
0.000000000
 51
180.000000000
  0
ARC
  8
1
 62
7
  6
CONTINUOUS
 10
996.018519927
 20
-185.842395498
 40
2.500000000
 50
0.000000000
 51
180.000000000
  0
LINE
  8
1
 62
7
  6
CONTINUOUS
 10
998.518527080
 20
-185.842396690
 11
998.518527080
 21
-205.842395312
  0
ARC
  8
1
 62
7
  6
CONTINUOUS
 10
996.018519927
 20
-105.842395498
 40
2.500000000
 50
0.000000000
 51
180.000000000
  0
LINE
  8
1
 62
7
  6
CONTINUOUS
 10
993.518516947
 20
-120.842399074
 11
993.518516947
 21
-105.842398478
  0
LINE
  8
1
 62
7
  6
CONTINUOUS
 10
518.518522907
 20
-228.842395357
 11
518.518522907
 21
-248.842395841
  0
LINE
  8
1
 62
7
  6
CONTINUOUS
 10
706.018519182
 20
-218.342395498
 11
681.018516947
 21
-218.342395498
  0
ARC
  8
1
 62
7
  6
CONTINUOUS
 10
996.018519927
 20
-248.842395498
 40
2.500000000
 50
180.000000000
 51
0.000000000
  0
LINE
  8
1
 62
7
  6
CONTINUOUS
 10
806.018520672
 20
-213.342395610
 11
831.018522907
 21
-213.342395610
  0
LINE
  8
1
 62
7
  6
CONTINUOUS
 10
1017.018527318
 20
-93.842396511
 11
1017.018527318
 21
-103.342393412
  0
LINE
  8
1
 62
7
  6
CONTINUOUS
 10
1017.018527318
 20
-103.342393412
 11
1017.218530704
 21
-103.342393412
  0
LINE
  8
1
 62
7
  6
CONTINUOUS
 10
1017.018527318
 20
-123.342396690
 11
1017.218530704
 21
-123.342396690
  0
LINE
  8
1
 62
7
  6
CONTINUOUS
 10
1017.018527318
 20
-123.342396690
 11
1017.018527318
 21
-313.342394306
  0
LINE
  8
1
 62
7
  6
CONTINUOUS
 10
1017.018527318
 20
-313.342394306
 11
1017.218530704
 21
-313.342394306
  0
LINE
  8
1
 62
7
  6
CONTINUOUS
 10
1017.018527318
 20
-333.342397584
 11
1017.218530704
 21
-333.342397584
  0
LINE
  8
1
 62
7
  6
CONTINUOUS
 10
1017.018527318
 20
-333.342397584
 11
1017.018527318
 21
-342.842394485
  0
LINE
  8
1
 62
7
  6
CONTINUOUS
 10
901.018515755
 20
-363.042401149
 11
901.018515755
 21
-362.842397763
  0
LINE
  8
1
 62
7
  6
CONTINUOUS
 10
881.018519927
 20
-363.042401149
 11
881.018519927
 21
-362.842397763
  0
LINE
  8
1
 62
7
  6
CONTINUOUS
 10
631.018519927
 20
-363.042401149
 11
631.018519927
 21
-362.842397763
  0
LINE
  8
1
 62
7
  6
CONTINUOUS
 10
611.018524099
 20
-363.042401149
 11
611.018524099
 21
-362.842397763
  0
LINE
  8
1
 62
7
  6
CONTINUOUS
 10
611.018524099
 20
-362.842397763
 11
515.018523265
 21
-362.842397763
  0
LINE
  8
1
 62
7
  6
CONTINUOUS
 10
495.018512536
 20
-333.342397584
 11
494.818509150
 21
-333.342397584
  0
LINE
  8
1
 62
7
  6
CONTINUOUS
 10
495.018512536
 20
-313.342394306
 11
494.818509150
 21
-313.342394306
  0
LINE
  8
1
 62
7
  6
CONTINUOUS
 10
495.018512536
 20
-123.342396690
 11
494.818509150
 21
-123.342396690
  0
LINE
  8
1
 62
7
  6
CONTINUOUS
 10
495.018512536
 20
-103.342393412
 11
494.818509150
 21
-103.342393412
  0
LINE
  8
1
 62
7
  6
CONTINUOUS
 10
959.518522550
 20
-72.642402722
 11
959.518522550
 21
-71.342395617
  0
LINE
  8
1
 62
7
  6
CONTINUOUS
 10
587.518513728
 20
-72.642402722
 11
587.518513728
 21
-71.342395617
  0
LINE
  8
1
 62
7
  6
CONTINUOUS
 10
587.518513728
 20
-71.342395617
 11
552.518517304
 21
-71.342395617
  0
LINE
  8
1
 62
7
  6
CONTINUOUS
 10
773.518520002
 20
-70.842402055
 11
773.518520002
 21
-69.542394950
  0
LINE
  8
1
 62
7
  6
CONTINUOUS
 10
587.518513728
 20
-73.842393233
 11
587.518513728
 21
-72.642402722
  0
LINE
  8
1
 62
7
  6
CONTINUOUS
 10
959.518522550
 20
-73.842393233
 11
997.018516589
 21
-73.842393233
  0
ARC
  8
1
 62
7
  6
CONTINUOUS
 10
997.018519927
 20
-93.842395498
 40
20.000000000
 50
0.000000000
 51
90.000000000
  0
LINE
  8
1
 62
7
  6
CONTINUOUS
 10
515.018523265
 20
-73.842393233
 11
552.518517304
 21
-73.842393233
  0
ARC
  8
1
 62
7
  6
CONTINUOUS
 10
515.018519927
 20
-93.842395498
 40
20.000000000
 50
90.000000000
 51
180.000000000
  0
LINE
  8
1
 62
7
  6
CONTINUOUS
 10
495.018512536
 20
-313.342394306
 11
495.018512536
 21
-123.342396690
  0
ARC
  8
1
 62
7
  6
CONTINUOUS
 10
515.018519927
 20
-342.842395498
 40
20.000000000
 50
180.000000000
 51
270.000000000
  0
ARC
  8
1
 62
7
  6
CONTINUOUS
 10
997.018519927
 20
-342.842395498
 40
20.000000000
 50
270.000000000
 51
0.000000000
  0
LINE
  8
1
 62
7
  6
CONTINUOUS
 10
587.518513728
 20
-73.842393233
 11
924.518526126
 21
-73.842393233
  0
LINE
  8
1
 62
7
  6
CONTINUOUS
 10
881.018519927
 20
-362.842397763
 11
631.018519927
 21
-362.842397763
  0
LINE
  8
1
 62
7
  6
CONTINUOUS
 10
997.018516589
 20
-362.842397763
 11
901.018515755
 21
-362.842397763
  0
LINE
  8
1
 62
7
  6
CONTINUOUS
 10
495.018512536
 20
-103.342393412
 11
495.018512536
 21
-93.842396511
  0
LINE
  8
1
 62
7
  6
CONTINUOUS
 10
495.018512536
 20
-342.842394485
 11
495.018512536
 21
-333.342397584
  0
LINE
  8
1
 62
7
  6
CONTINUOUS
 10
494.818509150
 20
-333.342397584
 11
493.518531848
 21
-333.342397584
  0
LINE
  8
1
 62
7
  6
CONTINUOUS
 10
493.518531848
 20
-333.342397584
 11
493.518531848
 21
-313.342394306
  0
LINE
  8
1
 62
7
  6
CONTINUOUS
 10
494.818509150
 20
-313.342394306
 11
493.518531848
 21
-313.342394306
  0
LINE
  8
1
 62
7
  6
CONTINUOUS
 10
1017.218530704
 20
-103.342393412
 11
1018.518508006
 21
-103.342393412
  0
LINE
  8
1
 62
7
  6
CONTINUOUS
 10
1018.518508006
 20
-103.342393412
 11
1018.518508006
 21
-123.342396690
  0
LINE
  8
1
 62
7
  6
CONTINUOUS
 10
1017.218530704
 20
-123.342396690
 11
1018.518508006
 21
-123.342396690
  0
LINE
  8
1
 62
7
  6
CONTINUOUS
 10
901.018515755
 20
-364.342393352
 11
901.018515755
 21
-363.042401149
  0
LINE
  8
1
 62
7
  6
CONTINUOUS
 10
901.018515755
 20
-364.342393352
 11
881.018519927
 21
-364.342393352
  0
LINE
  8
1
 62
7
  6
CONTINUOUS
 10
881.018519927
 20
-364.342393352
 11
881.018519927
 21
-363.042401149
  0
LINE
  8
1
 62
7
  6
CONTINUOUS
 10
493.518531848
 20
-103.342393412
 11
493.518531848
 21
-123.342396690
  0
LINE
  8
1
 62
7
  6
CONTINUOUS
 10
494.818509150
 20
-103.342393412
 11
493.518531848
 21
-103.342393412
  0
LINE
  8
1
 62
7
  6
CONTINUOUS
 10
494.818509150
 20
-123.342396690
 11
493.518531848
 21
-123.342396690
  0
LINE
  8
1
 62
7
  6
CONTINUOUS
 10
611.018524099
 20
-364.342393352
 11
631.018519927
 21
-364.342393352
  0
LINE
  8
1
 62
7
  6
CONTINUOUS
 10
611.018524099
 20
-364.342393352
 11
611.018524099
 21
-363.042401149
  0
LINE
  8
1
 62
7
  6
CONTINUOUS
 10
631.018519927
 20
-364.342393352
 11
631.018519927
 21
-363.042401149
  0
LINE
  8
1
 62
7
  6
CONTINUOUS
 10
552.518517304
 20
-72.642402722
 11
552.518517304
 21
-71.342395617
  0
LINE
  8
1
 62
7
  6
CONTINUOUS
 10
924.518526126
 20
-72.642402722
 11
924.518526126
 21
-71.342395617
  0
LINE
  8
1
 62
7
  6
CONTINUOUS
 10
924.518526126
 20
-71.342395617
 11
959.518522550
 21
-71.342395617
  0
LINE
  8
1
 62
7
  6
CONTINUOUS
 10
738.518519853
 20
-69.542394950
 11
773.518520002
 21
-69.542394950
  0
LINE
  8
1
 62
7
  6
CONTINUOUS
 10
924.518526126
 20
-73.842393233
 11
924.518526126
 21
-72.642402722
  0
LINE
  8
1
 62
7
  6
CONTINUOUS
 10
552.518517304
 20
-73.842393233
 11
552.518517304
 21
-72.642402722
  0
LINE
  8
1
 62
7
  6
CONTINUOUS
 10
738.518519853
 20
-73.842393233
 11
738.518519853
 21
-70.842402055
  0
LINE
  8
1
 62
7
  6
CONTINUOUS
 10
773.518520002
 20
-73.842393233
 11
773.518520002
 21
-70.842402055
  0
LINE
  8
1
 62
7
  6
CONTINUOUS
 10
959.518522550
 20
-73.842393233
 11
959.518522550
 21
-72.642402722
  0
LINE
  8
1
 62
7
  6
CONTINUOUS
 10
924.518526126
 20
-72.642402722
 11
924.518526126
 21
-71.442412211
  0
LINE
  8
1
 62
7
  6
CONTINUOUS
 10
738.518519853
 20
-70.842402055
 11
738.518519853
 21
-69.542394950
  0
LINE
  8
1
 62
7
  6
CONTINUOUS
 10
623.443410326
 20
-367.432402446
 11
623.365253736
 21
-367.432402446
  0
LINE
  8
1
 62
7
  6
CONTINUOUS
 10
888.593629528
 20
-367.432402446
 11
884.018526007
 21
-367.432402446
  0
LINE
  8
1
 62
7
  6
CONTINUOUS
 10
884.018526007
 20
-367.432402446
 11
884.018526007
 21
-369.452821090
  0
ARC
  8
1
 62
7
  6
CONTINUOUS
 10
756.018519927
 20
11336.824271218
 40
11706.976861199
 50
269.373535457
 51
270.626464543
  0
LINE
  8
1
 62
7
  6
CONTINUOUS
 10
628.018513847
 20
-367.432402446
 11
628.018513847
 21
-369.452821090
  0
LINE
  8
1
 62
7
  6
CONTINUOUS
 10
623.443410326
 20
-367.432402446
 11
628.018513847
 21
-367.432402446
  0
LINE
  8
1
 62
7
  6
CONTINUOUS
 10
888.593629528
 20
-367.432402446
 11
888.671786118
 21
-367.432402446
  0
LINE
  8
1
 62
7
  6
CONTINUOUS
 10
618.671790291
 20
-367.432402446
 11
618.593633700
 21
-367.432402446
  0
LINE
  8
1
 62
7
  6
CONTINUOUS
 10
893.365249563
 20
-367.432402446
 11
893.443406154
 21
-367.432402446
  0
LINE
  8
1
 62
7
  6
CONTINUOUS
 10
614.018515278
 20
-367.432402446
 11
614.018515278
 21
-369.291367008
  0
ARC
  8
1
 62
7
  6
CONTINUOUS
 10
756.018519927
 20
11336.824271218
 40
11706.976861199
 50
268.819718355
 51
269.305012703
  0
ARC
  8
1
 62
7
  6
CONTINUOUS
 10
515.416130738
 20
-341.364127214
 40
26.310194482
 50
181.301782295
 51
268.819718355
  0
ARC
  8
1
 62
7
  6
CONTINUOUS
 10
5929.081019887
 20
-218.342395499
 40
5441.372694443
 50
178.698217705
 51
181.301782295
  0
ARC
  8
1
 62
7
  6
CONTINUOUS
 10
515.416130738
 20
-95.320663784
 40
26.310194482
 50
91.180281645
 51
178.698217705
  0
ARC
  8
1
 62
7
  6
CONTINUOUS
 10
756.018519927
 20
-11773.509062215
 40
11706.976861199
 50
88.819718355
 51
91.180281645
  0
ARC
  8
1
 62
7
  6
CONTINUOUS
 10
996.620909115
 20
-95.320663784
 40
26.310194482
 50
1.301782295
 51
88.819718355
  0
ARC
  8
1
 62
7
  6
CONTINUOUS
 10
-4417.043980035
 20
-218.342395503
 40
5441.372694443
 50
358.698217705
 51
1.301782295
  0
ARC
  8
1
 62
7
  6
CONTINUOUS
 10
996.620909115
 20
-341.364127214
 40
26.310194482
 50
271.180281645
 51
358.698217705
  0
ARC
  8
1
 62
7
  6
CONTINUOUS
 10
756.018519927
 20
11336.824271218
 40
11706.976861199
 50
270.694987297
 51
271.180281645
  0
LINE
  8
1
 62
7
  6
CONTINUOUS
 10
898.018524576
 20
-367.432402446
 11
898.018524576
 21
-369.291367008
  0
LINE
  8
1
 62
7
  6
CONTINUOUS
 10
898.018524576
 20
-367.432402446
 11
893.443406154
 21
-367.432402446
  0
LINE
  8
1
 62
7
  6
CONTINUOUS
 10
614.018515278
 20
-367.432402446
 11
618.593633700
 21
-367.432402446
  0
LINE
  8
1
 62
7
  6
CONTINUOUS
 10
494.664192725
 20
-247.611133381
 11
494.536608983
 21
-247.611133381
  0
LINE
  8
1
 62
7
  6
CONTINUOUS
 10
785.287257809
 20
-363.238932564
 11
785.287257809
 21
-363.366516306
  0
LINE
  8
1
 62
7
  6
CONTINUOUS
 10
494.924724627
 20
-157.611133530
 11
494.797140885
 21
-157.611133530
  0
LINE
  8
1
 62
7
  6
CONTINUOUS
 10
494.971812297
 20
-127.651544287
 11
495.018512536
 21
-127.643795683
  0
LINE
  8
1
 62
7
  6
CONTINUOUS
 10
815.287259001
 20
-73.559375479
 11
815.287259001
 21
-73.431776835
  0
LINE
  8
1
 62
7
  6
CONTINUOUS
 10
635.327667523
 20
-73.661448433
 11
635.297596980
 21
-73.842393233
  0
LINE
  8
1
 62
7
  6
CONTINUOUS
 10
494.948924113
 20
-129.033247008
 11
495.018512536
 21
-129.044862463
  0
LINE
  8
1
 62
7
  6
CONTINUOUS
 10
494.971812297
 20
-309.033246710
 11
495.018512536
 21
-309.040995314
  0
LINE
  8
1
 62
7
  6
CONTINUOUS
 10
547.499970127
 20
-73.842393233
 11
547.518522073
 21
-73.786379768
  0
ARC
  8
1
 62
7
  6
CONTINUOUS
 10
756.018519927
 20
11336.824271218
 40
11700.227400844
 50
269.439054448
 51
269.452241126
  0
INSERT
  8
1
 62
7
  6
CONTINUOUS
  2
blk258
 10
514.737241387
 20
-317.949656537
 41
6.000000000
 42
0.104730389
 50
0.000000000
  0
ARC
  8
1
 62
7
  6
CONTINUOUS
 10
5929.081019887
 20
-218.342395499
 40
5434.865926124
 50
180.956131053
 51
180.985193524
  0
ARC
  8
1
 62
7
  6
CONTINUOUS
 10
5929.081019887
 20
-218.342395499
 40
5434.865926124
 50
179.014806476
 51
179.043868947
  0
ARC
  8
1
 62
7
  6
CONTINUOUS
 10
5929.081019887
 20
-218.342395499
 40
5434.495645506
 50
179.276601142
 51
179.359698185
  0
ARC
  8
1
 62
7
  6
CONTINUOUS
 10
-4417.043980035
 20
169.124242423
 40
5441.372694443
 50
358.698217705
 51
1.301782295
  0
ARC
  8
1
 62
7
  6
CONTINUOUS
 10
5929.081019888
 20
169.124242419
 40
5441.372694443
 50
178.698217705
 51
181.301782295
  0
ARC
  8
1
 62
7
  6
CONTINUOUS
 10
996.620909115
 20
46.102510709
 40
26.310194482
 50
271.180281645
 51
358.698217705
  0
ARC
  8
1
 62
7
  6
CONTINUOUS
 10
996.620909115
 20
292.145974138
 40
26.310194482
 50
1.301782295
 51
88.819718355
  0
ARC
  8
1
 62
7
  6
CONTINUOUS
 10
515.416130738
 20
46.102510709
 40
26.310194482
 50
181.301782295
 51
268.819718355
  0
ARC
  8
1
 62
7
  6
CONTINUOUS
 10
756.018519926
 20
11724.290909140
 40
11706.976861199
 50
268.819718355
 51
269.305012703
  0
LINE
  8
1
 62
7
  6
CONTINUOUS
 10
614.018519926
 20
18.175275479
 11
614.195149515
 21
18.703492827
  0
ARC
  8
1
 62
7
  6
CONTINUOUS
 10
620.258773025
 20
-47.251819146
 40
66.233456104
 50
83.425747486
 51
95.252740820
  0
LINE
  8
1
 62
7
  6
CONTINUOUS
 10
627.841890337
 20
18.546106652
 11
628.018519926
 21
18.013822524
  0
ARC
  8
1
 62
7
  6
CONTINUOUS
 10
756.018519926
 20
11724.290909140
 40
11706.976861199
 50
269.373535457
 51
270.626464543
  0
LINE
  8
1
 62
7
  6
CONTINUOUS
 10
884.195149515
 20
18.546106652
 11
884.018519926
 21
18.013822524
  0
ARC
  8
1
 62
7
  6
CONTINUOUS
 10
891.778266827
 20
-47.251819146
 40
66.233456104
 50
84.747259180
 51
96.574252514
  0
LINE
  8
1
 62
7
  6
CONTINUOUS
 10
898.018519926
 20
18.175275479
 11
897.841890337
 21
18.703492827
  0
ARC
  8
1
 62
7
  6
CONTINUOUS
 10
756.018519926
 20
11724.290909140
 40
11706.976861199
 50
270.694987297
 51
271.180281645
  0
ARC
  8
1
 62
7
  6
CONTINUOUS
 10
756.018519932
 20
-11386.042424293
 40
11706.976861199
 50
90.996011057
 51
91.180281645
  0
ARC
  8
1
 62
7
  6
CONTINUOUS
 10
756.018519932
 20
-11386.042424293
 40
11706.976861199
 50
89.175310595
 51
90.824689405
  0
ARC
  8
1
 62
7
  6
CONTINUOUS
 10
756.018519932
 20
-11386.042424293
 40
11706.976861199
 50
88.819718355
 51
89.003988943
  0
ARC
  8
1
 62
7
  6
CONTINUOUS
 10
515.416130738
 20
292.145974138
 40
26.310194482
 50
91.180281645
 51
178.698217705
  0
LINE
  8
1
 62
7
  6
CONTINUOUS
 10
924.518526125
 20
320.344340562
 11
924.518526125
 21
320.139315485
  0
LINE
  8
1
 62
7
  6
CONTINUOUS
 10
959.518522548
 20
320.344340562
 11
959.518522548
 21
320.139315485
  0
LINE
  8
1
 62
7
  6
CONTINUOUS
 10
585.518524575
 20
322.324242949
 11
554.518521356
 21
322.324242949
  0
LINE
  8
1
 62
7
  6
CONTINUOUS
 10
926.518515277
 20
322.324242949
 11
957.518518495
 21
322.324242949
  0
ARC
  8
1
 62
7
  6
CONTINUOUS
 10
554.268520143
 20
320.556471706
 40
1.785361524
 50
81.950513746
 51
168.578004959
  0
LINE
  8
1
 62
7
  6
CONTINUOUS
 10
552.518517303
 20
320.344340562
 11
552.518517303
 21
320.910033344
  0
ARC
  8
1
 62
7
  6
CONTINUOUS
 10
926.268504844
 20
320.556503184
 40
1.785331648
 50
81.950079329
 51
168.578841849
  0
LINE
  8
1
 62
7
  6
CONTINUOUS
 10
924.518526125
 20
320.344340562
 11
924.518526125
 21
320.910033344
  0
LINE
  8
1
 62
7
  6
CONTINUOUS
 10
889.018519926
 20
16.960678054
 11
889.018519926
 21
17.008027418
  0
ARC
  8
1
 62
7
  6
CONTINUOUS
 10
891.018519926
 20
22.924242424
 40
6.245126100
 50
251.321971324
 51
258.453913306
  0
LINE
  8
1
 62
7
  6
CONTINUOUS
 10
890.252154415
 20
16.782957720
 11
890.268519926
 21
16.805492552
  0
LINE
  8
1
 62
7
  6
CONTINUOUS
 10
890.186942246
 20
16.766364838
 11
890.252154415
 21
16.782957720
  0
LINE
  8
1
 62
7
  6
CONTINUOUS
 10
890.076536077
 20
16.764389220
 11
890.186942246
 21
16.766364838
  0
LINE
  8
1
 62
7
  6
CONTINUOUS
 10
889.930408255
 20
16.777984396
 11
890.076536077
 21
16.764389220
  0
LINE
  8
1
 62
7
  6
CONTINUOUS
 10
889.768519926
 20
16.805492552
 11
889.930408255
 21
16.777984396
  0
LINE
  8
1
 62
7
  6
CONTINUOUS
 10
890.268519926
 20
16.805492552
 11
890.268519926
 21
17.008027418
  0
ARC
  8
1
 62
7
  6
CONTINUOUS
 10
891.018519926
 20
22.924242424
 40
5.963564370
 50
262.775138609
 51
277.224861391
  0
LINE
  8
1
 62
7
  6
CONTINUOUS
 10
891.768519926
 20
17.008027418
 11
891.768519926
 21
16.805492552
  0
ARC
  8
1
 62
7
  6
CONTINUOUS
 10
892.018519926
 20
17.577405437
 40
0.811387394
 50
252.054378226
 51
287.945621774
  0
ARC
  8
1
 62
7
  6
CONTINUOUS
 10
891.018519926
 20
22.924242424
 40
6.245126100
 50
281.546086694
 51
288.678028676
  0
LINE
  8
1
 62
7
  6
CONTINUOUS
 10
893.018519926
 20
17.008027418
 11
893.018519926
 21
16.960678054
  0
LINE
  8
1
 62
7
  6
CONTINUOUS
 10
619.018519926
 20
16.960678054
 11
619.018519926
 21
17.008027418
  0
ARC
  8
1
 62
7
  6
CONTINUOUS
 10
621.018519926
 20
22.924242424
 40
6.245126100
 50
251.321971324
 51
258.453913306
  0
LINE
  8
1
 62
7
  6
CONTINUOUS
 10
620.252154415
 20
16.782957720
 11
620.268519926
 21
16.805492552
  0
LINE
  8
1
 62
7
  6
CONTINUOUS
 10
620.186942246
 20
16.766364838
 11
620.252154415
 21
16.782957720
  0
LINE
  8
1
 62
7
  6
CONTINUOUS
 10
620.076536077
 20
16.764389220
 11
620.186942246
 21
16.766364838
  0
LINE
  8
1
 62
7
  6
CONTINUOUS
 10
619.930408255
 20
16.777984396
 11
620.076536077
 21
16.764389220
  0
LINE
  8
1
 62
7
  6
CONTINUOUS
 10
619.768519926
 20
16.805492552
 11
619.930408255
 21
16.777984396
  0
LINE
  8
1
 62
7
  6
CONTINUOUS
 10
620.268519926
 20
16.805492552
 11
620.268519926
 21
17.008027418
  0
ARC
  8
1
 62
7
  6
CONTINUOUS
 10
621.018519926
 20
22.924242424
 40
5.963564370
 50
262.775138609
 51
277.224861391
  0
LINE
  8
1
 62
7
  6
CONTINUOUS
 10
621.768519926
 20
17.008027418
 11
621.768519926
 21
16.805492552
  0
ARC
  8
1
 62
7
  6
CONTINUOUS
 10
622.018519926
 20
17.577405437
 40
0.811387394
 50
252.054378226
 51
287.945621774
  0
ARC
  8
1
 62
7
  6
CONTINUOUS
 10
621.018519926
 20
22.924242424
 40
6.245126100
 50
281.546086694
 51
288.678028676
  0
LINE
  8
1
 62
7
  6
CONTINUOUS
 10
623.018519926
 20
17.008027418
 11
623.018519926
 21
16.960678054
  0
LINE
  8
1
 62
7
  6
CONTINUOUS
 10
501.458741794
 20
131.624242424
 11
498.101713107
 21
131.624242424
  0
LINE
  8
1
 62
7
  6
CONTINUOUS
 10
498.545081201
 20
177.873445148
 11
498.530045019
 21
176.623172106
  0
LINE
  8
1
 62
7
  6
CONTINUOUS
 10
498.737592542
 20
192.874242423
 11
498.705211841
 21
190.476449011
  0
LINE
  8
1
 62
7
  6
CONTINUOUS
 10
498.705211841
 20
190.476449011
 11
498.606547954
 21
182.874242791
  0
LINE
  8
1
 62
7
  6
CONTINUOUS
 10
499.548423894
 20
242.874242424
 11
499.595635124
 21
245.374242424
  0
LINE
  8
1
 62
7
  6
CONTINUOUS
 10
499.321709319
 20
230.379614413
 11
499.365756497
 21
232.874242424
  0
LINE
  8
1
 62
7
  6
CONTINUOUS
 10
499.110879881
 20
217.874242424
 11
499.151800575
 21
220.374242424
  0
ARC
  8
1
 62
7
  6
CONTINUOUS
 10
499.321709319
 20
230.379614413
 40
0.005372054
 50
269.716661550
 51
270.112381486
  0
LINE
  8
1
 62
7
  6
CONTINUOUS
 10
499.548423894
 20
242.874242424
 11
499.548394213
 21
242.874242424
  0
LINE
  8
1
 62
7
  6
CONTINUOUS
 10
499.388099120
 20
234.124009627
 11
499.365756497
 21
232.874242424
  0
LINE
  8
1
 62
7
  6
CONTINUOUS
 10
499.410509821
 20
235.373809367
 11
499.388099120
 21
234.124009627
  0
LINE
  8
1
 62
7
  6
CONTINUOUS
 10
499.433056677
 20
236.623674180
 11
499.410509821
 21
235.373809367
  0
LINE
  8
1
 62
7
  6
CONTINUOUS
 10
499.455805525
 20
237.873635532
 11
499.433056677
 21
236.623674180
  0
LINE
  8
1
 62
7
  6
CONTINUOUS
 10
499.478765483
 20
239.123697779
 11
499.455805525
 21
237.873635532
  0
LINE
  8
1
 62
7
  6
CONTINUOUS
 10
499.501885911
 20
240.373836720
 11
499.478765483
 21
239.123697779
  0
LINE
  8
1
 62
7
  6
CONTINUOUS
 10
499.525113317
 20
241.624026790
 11
499.501885911
 21
240.373836720
  0
LINE
  8
1
 62
7
  6
CONTINUOUS
 10
499.548394213
 20
242.874242424
 11
499.525113317
 21
241.624026790
  0
LINE
  8
1
 62
7
  6
CONTINUOUS
 10
499.790911906
 20
255.374242424
 11
499.790901646
 21
255.374242424
  0
LINE
  8
1
 62
7
  6
CONTINUOUS
 10
499.619559875
 20
246.624055203
 11
499.595635124
 21
245.374242424
  0
LINE
  8
1
 62
7
  6
CONTINUOUS
 10
499.643552210
 20
247.873894149
 11
499.619559875
 21
246.624055203
  0
LINE
  8
1
 62
7
  6
CONTINUOUS
 10
499.667679715
 20
249.123785428
 11
499.643552210
 21
247.873894149
  0
LINE
  8
1
 62
7
  6
CONTINUOUS
 10
499.692007750
 20
250.373754346
 11
499.667679715
 21
249.123785428
  0
LINE
  8
1
 62
7
  6
CONTINUOUS
 10
499.716545366
 20
251.623804407
 11
499.692007750
 21
250.373754346
  0
LINE
  8
1
 62
7
  6
CONTINUOUS
 10
499.741242289
 20
252.873916147
 11
499.716545366
 21
251.623804407
  0
LINE
  8
1
 62
7
  6
CONTINUOUS
 10
499.766045416
 20
254.124069006
 11
499.741242289
 21
252.873916147
  0
LINE
  8
1
 62
7
  6
CONTINUOUS
 10
499.790901646
 20
255.374242424
 11
499.766045416
 21
254.124069006
  0
LINE
  8
1
 62
7
  6
CONTINUOUS
 10
500.316315570
 20
255.374242424
 11
499.790911906
 21
255.374242424
  0
LINE
  8
1
 62
7
  6
CONTINUOUS
 10
500.512889479
 20
255.374242424
 11
500.316315570
 21
255.374242424
  0
LINE
  8
1
 62
7
  6
CONTINUOUS
 10
500.751803873
 20
255.374242424
 11
500.512889479
 21
255.374242424
  0
LINE
  8
1
 62
7
  6
CONTINUOUS
 10
501.049337149
 20
255.374242424
 11
500.751803873
 21
255.374242424
  0
LINE
  8
1
 62
7
  6
CONTINUOUS
 10
501.402251625
 20
255.374242424
 11
501.049337149
 21
255.374242424
  0
LINE
  8
1
 62
7
  6
CONTINUOUS
 10
501.802443400
 20
255.374242424
 11
501.402251625
 21
255.374242424
  0
LINE
  8
1
 62
7
  6
CONTINUOUS
 10
502.240955605
 20
255.374242424
 11
501.802443400
 21
255.374242424
  0
LINE
  8
1
 62
7
  6
CONTINUOUS
 10
502.705542985
 20
255.374242424
 11
502.240955605
 21
255.374242424
  0
LINE
  8
1
 62
7
  6
CONTINUOUS
 10
503.183167953
 20
255.374242424
 11
502.705542985
 21
255.374242424
  0
ARC
  8
1
 62
7
  6
CONTINUOUS
 10
756.018519932
 20
-11386.042424293
 40
11702.652588923
 50
89.073570884
 51
90.926430043
  0
ARC
  8
1
 62
7
  6
CONTINUOUS
 10
756.018519932
 20
-11386.042424293
 40
11702.725513611
 50
91.032045771
 51
91.178528248
  0
ARC
  8
1
 62
7
  6
CONTINUOUS
 10
515.767514489
 20
291.803522581
 40
22.408462535
 50
91.144796888
 51
178.728238080
  0
LINE
  8
1
 62
7
  6
CONTINUOUS
 10
493.364571846
 20
292.300869673
 11
493.174653470
 21
283.613888091
  0
ARC
  8
1
 62
7
  6
CONTINUOUS
 10
996.269525363
 20
291.803522582
 40
22.408462535
 50
1.271761920
 51
88.855203112
  0
ARC
  8
1
 62
7
  6
CONTINUOUS
 10
756.018519932
 20
-11386.042424293
 40
11702.725513611
 50
88.821471752
 51
88.967954229
  0
LINE
  8
1
 62
7
  6
CONTINUOUS
 10
1018.862386382
 20
283.613888091
 11
1018.672468006
 21
292.300869673
  0
LINE
  8
1
 62
7
  6
CONTINUOUS
 10
966.803596478
 20
314.698275134
 11
966.803596478
 21
314.784644698
  0
LINE
  8
1
 62
7
  6
CONTINUOUS
 10
966.805932760
 20
314.812747141
 11
966.478564256
 21
314.622439482
  0
LINE
  8
1
 62
7
  6
CONTINUOUS
 10
566.803596473
 20
315.066966550
 11
566.803596478
 21
315.096878724
  0
LINE
  8
1
 62
7
  6
CONTINUOUS
 10
566.803519431
 20
315.096878724
 11
566.478564256
 21
314.896869889
  0
LINE
  8
1
 62
7
  6
CONTINUOUS
 10
945.558475596
 20
314.896869889
 11
945.233520420
 21
315.096878724
  0
ARC
  8
1
 62
7
  6
CONTINUOUS
 10
509.396844924
 20
44.371106175
 40
15.823524142
 50
179.122110664
 51
212.390403527
  0
LINE
  8
1
 62
7
  6
CONTINUOUS
 10
496.152806652
 20
35.894675776
 11
496.035181706
 21
35.894675776
  0
LINE
  8
1
 62
7
  6
CONTINUOUS
 10
493.655361571
 20
47.048488541
 11
493.575178154
 21
44.613545666
  0
LINE
  8
1
 62
7
  6
CONTINUOUS
 10
493.788665100
 20
49.000859076
 11
493.655361571
 21
47.048488541
  0
LINE
  8
1
 62
7
  6
CONTINUOUS
 10
493.178125938
 20
283.613888091
 11
493.268393811
 21
283.613888091
  0
ARC
  8
1
 62
7
  6
CONTINUOUS
 10
531.839214101
 20
280.262142553
 40
38.809566436
 50
175.045540938
 51
189.843140200
  0
ARC
  8
1
 62
7
  6
CONTINUOUS
 10
980.228356404
 20
280.260839270
 40
38.779262612
 50
350.151045660
 51
4.960273202
  0
LINE
  8
1
 62
7
  6
CONTINUOUS
 10
945.835258891
 20
314.828226906
 11
945.558475596
 21
314.896869889
  0
LINE
  8
1
 62
7
  6
CONTINUOUS
 10
946.292225105
 20
314.767867412
 11
945.835258891
 21
314.828226906
  0
LINE
  8
1
 62
7
  6
CONTINUOUS
 10
947.409588130
 20
314.671998891
 11
946.292225105
 21
314.767867412
  0
LINE
  8
1
 62
7
  6
CONTINUOUS
 10
948.175380076
 20
314.621841660
 11
947.409588130
 21
314.671998891
  0
LINE
  8
1
 62
7
  6
CONTINUOUS
 10
948.721566018
 20
314.590322281
 11
948.175380076
 21
314.621841660
  0
LINE
  8
1
 62
7
  6
CONTINUOUS
 10
948.923576078
 20
314.579663722
 11
948.721566018
 21
314.590322281
  0
LINE
  8
1
 62
7
  6
CONTINUOUS
 10
948.924280335
 20
314.579628762
 11
948.923576078
 21
314.579663722
  0
LINE
  8
1
 62
7
  6
CONTINUOUS
 10
948.924473111
 20
314.579619195
 11
948.924280335
 21
314.579628762
  0
LINE
  8
1
 62
7
  6
CONTINUOUS
 10
948.924858675
 20
314.579600062
 11
948.924473111
 21
314.579619195
  0
LINE
  8
1
 62
7
  6
CONTINUOUS
 10
948.925629841
 20
314.579561799
 11
948.924858675
 21
314.579600062
  0
LINE
  8
1
 62
7
  6
CONTINUOUS
 10
948.927172333
 20
314.579485281
 11
948.925629841
 21
314.579561799
  0
LINE
  8
1
 62
7
  6
CONTINUOUS
 10
948.933344426
 20
314.579179344
 11
948.927172333
 21
314.579485281
  0
LINE
  8
1
 62
7
  6
CONTINUOUS
 10
948.945698795
 20
314.578568103
 11
948.933344426
 21
314.579179344
  0
LINE
  8
1
 62
7
  6
CONTINUOUS
 10
948.970448081
 20
314.577348155
 11
948.945698795
 21
314.578568103
  0
LINE
  8
1
 62
7
  6
CONTINUOUS
 10
949.020107436
 20
314.574918399
 11
948.970448081
 21
314.577348155
  0
LINE
  8
1
 62
7
  6
CONTINUOUS
 10
949.120057983
 20
314.570099443
 11
949.020107436
 21
314.574918399
  0
LINE
  8
1
 62
7
  6
CONTINUOUS
 10
949.322396497
 20
314.560623756
 11
949.120057983
 21
314.570099443
  0
LINE
  8
1
 62
7
  6
CONTINUOUS
 10
949.736110724
 20
314.542321280
 11
949.322396497
 21
314.560623756
  0
LINE
  8
1
 62
7
  6
CONTINUOUS
 10
950.594113567
 20
314.508311921
 11
949.736110724
 21
314.542321280
  0
LINE
  8
1
 62
7
  6
CONTINUOUS
 10
952.390205439
 20
314.450675576
 11
950.594113567
 21
314.508311921
  0
LINE
  8
1
 62
7
  6
CONTINUOUS
 10
954.220546692
 20
314.406882396
 11
952.390205439
 21
314.450675576
  0
LINE
  8
1
 62
7
  6
CONTINUOUS
 10
956.011680263
 20
314.376932380
 11
954.220546692
 21
314.406882396
  0
LINE
  8
1
 62
7
  6
CONTINUOUS
 10
959.517923845
 20
314.358069070
 11
956.011680263
 21
314.376932380
  0
LINE
  8
1
 62
7
  6
CONTINUOUS
 10
961.214270103
 20
314.368697708
 11
959.517923845
 21
314.358069070
  0
LINE
  8
1
 62
7
  6
CONTINUOUS
 10
962.787727820
 20
314.392699586
 11
961.214270103
 21
314.368697708
  0
LINE
  8
1
 62
7
  6
CONTINUOUS
 10
964.169087266
 20
314.430074701
 11
962.787727820
 21
314.392699586
  0
LINE
  8
1
 62
7
  6
CONTINUOUS
 10
965.288286252
 20
314.480823056
 11
964.169087266
 21
314.430074701
  0
LINE
  8
1
 62
7
  6
CONTINUOUS
 10
966.078123353
 20
314.544944649
 11
965.288286252
 21
314.480823056
  0
LINE
  8
1
 62
7
  6
CONTINUOUS
 10
966.478564256
 20
314.622439482
 11
966.078123353
 21
314.544944649
  0
LINE
  8
1
 62
7
  6
CONTINUOUS
 10
566.478564256
 20
314.866978508
 11
566.478564256
 21
314.896875845
  0
LINE
  8
1
 62
7
  6
CONTINUOUS
 10
493.797964974
 20
49.000859076
 11
493.829019287
 21
49.000859076
  0
LINE
  8
1
 62
7
  6
CONTINUOUS
 10
494.258453658
 20
54.489506566
 11
493.788665100
 21
49.000859076
  0
LINE
  8
1
 62
7
  6
CONTINUOUS
 10
1018.208020565
 20
49.000859076
 11
1018.248831918
 21
49.000859076
  0
ARC
  8
1
 62
7
  6
CONTINUOUS
 10
582.654437996
 20
34.028681065
 40
9.892847604
 50
260.306148389
 51
271.995912544
  0
LINE
  8
1
 62
7
  6
CONTINUOUS
 10
580.988644671
 20
24.277088051
 11
580.988643735
 21
24.643474271
  0
ARC
  8
1
 62
7
  6
CONTINUOUS
 10
756.018519926
 20
11724.290909140
 40
11702.639158059
 50
268.822134686
 51
271.177865314
  0
LINE
  8
1
 62
7
  6
CONTINUOUS
 10
931.048396116
 20
24.643474271
 11
931.048395181
 21
24.277088051
  0
ARC
  8
1
 62
7
  6
CONTINUOUS
 10
929.383284648
 20
34.018532319
 40
9.882728850
 50
267.998082105
 51
279.699856962
  0
LINE
  8
1
 62
7
  6
CONTINUOUS
 10
698.343474436
 20
23.004753450
 11
582.998988076
 21
24.141835311
  0
LINE
  8
1
 62
7
  6
CONTINUOUS
 10
813.693565416
 20
23.004753450
 11
698.343474436
 21
23.004753450
  0
LINE
  8
1
 62
7
  6
CONTINUOUS
 10
929.038051776
 20
24.141835311
 11
813.693565416
 21
23.004753450
  0
ARC
  8
1
 62
7
  6
CONTINUOUS
 10
997.837930396
 20
45.665954040
 40
20.521864530
 50
331.566406049
 51
1.744573658
  0
ARC
  8
1
 62
7
  6
CONTINUOUS
 10
996.127478939
 20
46.582222574
 40
22.462257132
 50
271.154543395
 51
331.588535185
  0
ARC
  8
1
 62
7
  6
CONTINUOUS
 10
515.904686444
 20
46.574227986
 40
22.454166445
 50
208.399440308
 51
268.857481112
  0
LINE
  8
1
 62
7
  6
CONTINUOUS
 10
580.991216597
 20
27.210685821
 11
580.992915546
 21
28.911863077
  0
LINE
  8
1
 62
7
  6
CONTINUOUS
 10
580.989933947
 20
25.927700819
 11
580.991216597
 21
27.210685821
  0
LINE
  8
1
 62
7
  6
CONTINUOUS
 10
580.989069228
 20
25.064814842
 11
580.989933947
 21
25.927700819
  0
LINE
  8
1
 62
7
  6
CONTINUOUS
 10
580.988643735
 20
24.643474271
 11
580.989069228
 21
25.064814842
  0
LINE
  8
1
 62
7
  6
CONTINUOUS
 10
931.047976571
 20
25.058874586
 11
931.048396116
 21
24.643474271
  0
LINE
  8
1
 62
7
  6
CONTINUOUS
 10
931.047121130
 20
25.912485603
 11
931.047976571
 21
25.058874586
  0
LINE
  8
1
 62
7
  6
CONTINUOUS
 10
931.045830681
 20
27.203259358
 11
931.047121130
 21
25.912485603
  0
LINE
  8
1
 62
7
  6
CONTINUOUS
 10
931.044124306
 20
28.911863077
 11
931.045830681
 21
27.203259358
  0
LINE
  8
1
 62
7
  6
CONTINUOUS
 10
1017.736481613
 20
54.489506566
 11
1017.787886068
 21
54.489506566
  0
LINE
  8
1
 62
7
  6
CONTINUOUS
 10
494.300558239
 20
54.489506566
 11
494.258453658
 21
54.489506566
  0
LINE
  8
1
 62
7
  6
CONTINUOUS
 10
1013.419164813
 20
106.825261506
 11
1013.331248997
 21
106.825261506
  0
LINE
  8
1
 62
7
  6
CONTINUOUS
 10
498.705790855
 20
106.825261506
 11
498.624070674
 21
106.825261506
  0
ARC
  8
1
 62
7
  6
CONTINUOUS
 10
561.317380626
 20
103.316611377
 40
62.709822192
 50
165.858094059
 51
176.792593698
  0
LINE
  8
1
 62
7
  6
CONTINUOUS
 10
494.825313319
 20
60.421009105
 11
494.300558239
 21
54.489506566
  0
LINE
  8
1
 62
7
  6
CONTINUOUS
 10
495.370624217
 20
66.687565911
 11
494.825313319
 21
60.421009105
  0
LINE
  8
1
 62
7
  6
CONTINUOUS
 10
495.933227691
 20
73.245565618
 11
495.370624217
 21
66.687565911
  0
LINE
  8
1
 62
7
  6
CONTINUOUS
 10
496.514102928
 20
80.110291688
 11
495.933227691
 21
73.245565618
  0
LINE
  8
1
 62
7
  6
CONTINUOUS
 10
497.117254941
 20
87.337128015
 11
496.514102928
 21
80.110291688
  0
LINE
  8
1
 62
7
  6
CONTINUOUS
 10
497.735865417
 20
94.848196868
 11
497.117254941
 21
87.337128015
  0
LINE
  8
1
 62
7
  6
CONTINUOUS
 10
498.705790855
 20
106.825261506
 11
497.735865417
 21
94.848196868
  0
LINE
  8
1
 62
7
  6
CONTINUOUS
 10
494.300558239
 20
54.489506566
 11
493.829019287
 21
49.000859076
  0
LINE
  8
1
 62
7
  6
CONTINUOUS
 10
493.829019287
 20
49.000859076
 11
493.686757249
 21
46.290718600
  0
ARC
  8
1
 62
7
  6
CONTINUOUS
 10
958.243444576
 20
104.464507165
 40
55.138365563
 50
2.453874326
 51
14.895435199
  0
LINE
  8
1
 62
7
  6
CONTINUOUS
 10
1018.238702983
 20
48.597635179
 11
1018.208020565
 21
49.000859076
  0
LINE
  8
1
 62
7
  6
CONTINUOUS
 10
1018.350282603
 20
46.290718600
 11
1018.238702983
 21
48.597635179
  0
LINE
  8
1
 62
7
  6
CONTINUOUS
 10
1017.736481613
 20
54.489506566
 11
1018.208020565
 21
49.000859076
  0
LINE
  8
1
 62
7
  6
CONTINUOUS
 10
1017.211726533
 20
60.421009105
 11
1017.736481613
 21
54.489506566
  0
LINE
  8
1
 62
7
  6
CONTINUOUS
 10
1016.666415635
 20
66.687565911
 11
1017.211726533
 21
60.421009105
  0
LINE
  8
1
 62
7
  6
CONTINUOUS
 10
1016.103812161
 20
73.245565618
 11
1016.666415635
 21
66.687565911
  0
LINE
  8
1
 62
7
  6
CONTINUOUS
 10
1015.522936924
 20
80.110291688
 11
1016.103812161
 21
73.245565618
  0
LINE
  8
1
 62
7
  6
CONTINUOUS
 10
1014.919784911
 20
87.337128015
 11
1015.522936924
 21
80.110291688
  0
LINE
  8
1
 62
7
  6
CONTINUOUS
 10
1014.301174434
 20
94.848196868
 11
1014.919784911
 21
87.337128015
  0
LINE
  8
1
 62
7
  6
CONTINUOUS
 10
1013.331248997
 20
106.825261506
 11
1014.301174434
 21
94.848196868
  0
LINE
  8
1
 62
7
  6
CONTINUOUS
 10
1010.700568698
 20
119.690449474
 11
1009.359068551
 21
120.090740194
  0
LINE
  8
1
 62
7
  6
CONTINUOUS
 10
1011.431506978
 20
118.883739016
 11
1010.700568698
 21
119.690449474
  0
LINE
  8
1
 62
7
  6
CONTINUOUS
 10
501.336471292
 20
119.690449605
 11
500.605533097
 21
118.883739560
  0
LINE
  8
1
 62
7
  6
CONTINUOUS
 10
502.677971472
 20
120.090740194
 11
501.336471292
 21
119.690449605
  0
LINE
  8
1
 62
7
  6
CONTINUOUS
 10
498.101713107
 20
131.624242424
 11
498.188379604
 21
142.874242424
  0
LINE
  8
1
 62
7
  6
CONTINUOUS
 10
498.209499753
 20
145.374242424
 11
498.300707650
 21
155.374242424
  0
LINE
  8
1
 62
7
  6
CONTINUOUS
 10
498.325185597
 20
157.874242424
 11
498.429768504
 21
167.874242424
  0
LINE
  8
1
 62
7
  6
CONTINUOUS
 10
498.457576937
 20
170.374242423
 11
498.575433356
 21
180.374242424
  0
LINE
  8
1
 62
7
  6
CONTINUOUS
 10
498.606548823
 20
182.874242424
 11
498.705212710
 21
190.476448644
  0
LINE
  8
1
 62
7
  6
CONTINUOUS
 10
498.705212365
 20
190.476449011
 11
498.737593066
 21
192.874242424
  0
LINE
  8
1
 62
7
  6
CONTINUOUS
 10
498.771994896
 20
195.374242424
 11
498.916129912
 21
205.374242424
  0
LINE
  8
1
 62
7
  6
CONTINUOUS
 10
498.953788199
 20
207.874242424
 11
499.110879881
 21
217.874242424
  0
LINE
  8
1
 62
7
  6
CONTINUOUS
 10
499.151761099
 20
220.374242424
 11
499.321682753
 21
230.374242424
  0
INSERT
  8
1
 62
7
  6
CONTINUOUS
  2
blk458
 10
11795.284761009
 20
-11386.042424293
 41
18428.765022127
 42
14756.489456396
 50
0.000000000
  0
ARC
  8
1
 62
7
  6
CONTINUOUS
 10
554.178479173
 20
422.337291293
 40
108.171901264
 50
265.429367213
 51
276.529149819
  0
INSERT
  8
1
 62
7
  6
CONTINUOUS
  2
blk460
 10
-10059.388853390
 20
-11386.042424293
 41
18055.058800909
 42
14457.251178271
 50
0.000000000
  0
LINE
  8
1
 62
7
  6
CONTINUOUS
 10
498.325185597
 20
157.874242424
 11
498.300707650
 21
155.374242424
  0
LINE
  8
1
 62
7
  6
CONTINUOUS
 10
498.575433356
 20
180.374242424
 11
498.575447761
 21
180.374242424
  0
LINE
  8
1
 62
7
  6
CONTINUOUS
 10
580.996954662
 20
84.398922919
 11
580.998140162
 21
100.721043667
  0
LINE
  8
1
 62
7
  6
CONTINUOUS
 10
580.995851071
 20
69.063296691
 11
580.996954662
 21
84.398922919
  0
LINE
  8
1
 62
7
  6
CONTINUOUS
 10
580.994818484
 20
54.693267231
 11
580.995851071
 21
69.063296691
  0
LINE
  8
1
 62
7
  6
CONTINUOUS
 10
580.993841398
 20
41.299377969
 11
580.994818484
 21
54.693267231
  0
LINE
  8
1
 62
7
  6
CONTINUOUS
 10
580.992915546
 20
28.911863077
 11
580.993841398
 21
41.299377969
  0
LINE
  8
1
 62
7
  6
CONTINUOUS
 10
497.512673192
 20
270.580904142
 11
502.524017162
 21
267.538629338
  0
LINE
  8
1
 62
7
  6
CONTINUOUS
 10
493.600945367
 20
273.627592744
 11
497.512673192
 21
270.580904142
  0
LINE
  8
1
 62
7
  6
CONTINUOUS
 10
493.515171892
 20
273.863394890
 11
493.609912411
 21
273.627619847
  0
LINE
  8
1
 62
7
  6
CONTINUOUS
 10
493.361125841
 20
275.144690926
 11
493.515171892
 21
273.863394890
  0
LINE
  8
1
 62
7
  6
CONTINUOUS
 10
493.263060196
 20
277.376350674
 11
493.361125841
 21
275.144690926
  0
LINE
  8
1
 62
7
  6
CONTINUOUS
 10
1014.524366755
 20
270.580904206
 11
1009.513022925
 21
267.538629466
  0
LINE
  8
1
 62
7
  6
CONTINUOUS
 10
1018.436094485
 20
273.627592744
 11
1014.524366755
 21
270.580904206
  0
LINE
  8
1
 62
7
  6
CONTINUOUS
 10
931.043198453
 20
41.299377969
 11
931.044124306
 21
28.911863077
  0
LINE
  8
1
 62
7
  6
CONTINUOUS
 10
931.042221367
 20
54.693267231
 11
931.043198453
 21
41.299377969
  0
LINE
  8
1
 62
7
  6
CONTINUOUS
 10
931.041188781
 20
69.063296691
 11
931.042221367
 21
54.693267231
  0
LINE
  8
1
 62
7
  6
CONTINUOUS
 10
931.040085192
 20
84.398922919
 11
931.041188781
 21
69.063296691
  0
LINE
  8
1
 62
7
  6
CONTINUOUS
 10
931.038899690
 20
100.721043667
 11
931.040085192
 21
84.398922919
  0
LINE
  8
1
 62
7
  6
CONTINUOUS
 10
500.509335598
 20
118.637866017
 11
500.605533097
 21
118.883739560
  0
LINE
  8
1
 62
7
  6
CONTINUOUS
 10
1011.431508371
 20
118.883735636
 11
1011.527733580
 21
118.638428150
  0
LINE
  8
1
 62
7
  6
CONTINUOUS
 10
1010.611940358
 20
119.691916897
 11
1011.423174760
 21
118.883411936
  0
LINE
  8
1
 62
7
  6
CONTINUOUS
 10
1009.248921910
 20
120.090740194
 11
1010.611940358
 21
119.691916897
  0
LINE
  8
1
 62
7
  6
CONTINUOUS
 10
499.110879881
 20
217.874242424
 11
499.110917285
 21
217.874242424
  0
LINE
  8
1
 62
7
  6
CONTINUOUS
 10
499.321682753
 20
230.374242424
 11
499.321723258
 21
230.374242424
  0
LINE
  8
1
 62
7
  6
CONTINUOUS
 10
499.548394213
 20
242.874242424
 11
499.548423876
 21
242.874242424
  0
LINE
  8
1
 62
7
  6
CONTINUOUS
 10
845.873338897
 20
112.793299570
 11
923.046027709
 21
112.589697552
  0
LINE
  8
1
 62
7
  6
CONTINUOUS
 10
768.709326938
 20
112.906475508
 11
845.873338897
 21
112.793299570
  0
LINE
  8
1
 62
7
  6
CONTINUOUS
 10
931.107768904
 20
104.145186473
 11
931.038391860
 21
101.293889053
  0
LINE
  8
1
 62
7
  6
CONTINUOUS
 10
930.904861051
 20
105.776037778
 11
931.107768904
 21
104.145186473
  0
LINE
  8
1
 62
7
  6
CONTINUOUS
 10
930.321175942
 20
107.540547396
 11
930.904861051
 21
105.776037778
  0
LINE
  8
1
 62
7
  6
CONTINUOUS
 10
929.229954388
 20
109.343064260
 11
930.321175942
 21
107.540547396
  0
LINE
  8
1
 62
7
  6
CONTINUOUS
 10
927.585652365
 20
110.973950234
 11
929.229954388
 21
109.343064260
  0
LINE
  8
1
 62
7
  6
CONTINUOUS
 10
925.458506828
 20
112.148220407
 11
927.585652365
 21
110.973950234
  0
LINE
  8
1
 62
7
  6
CONTINUOUS
 10
923.046027709
 20
112.589697552
 11
925.458506828
 21
112.148220407
  0
LINE
  8
1
 62
7
  6
CONTINUOUS
 10
931.038391860
 20
101.293889053
 11
931.038899690
 21
100.721043667
  0
LINE
  8
1
 62
7
  6
CONTINUOUS
 10
756.018519926
 20
112.901208783
 11
768.709327003
 21
112.906547918
  0
LINE
  8
1
 62
7
  6
CONTINUOUS
 10
499.790901646
 20
255.374242424
 11
499.790911906
 21
255.374242424
  0
LINE
  8
1
 62
7
  6
CONTINUOUS
 10
502.677971472
 20
120.090740194
 11
502.788117264
 21
120.090740194
  0
ARC
  8
1
 62
7
  6
CONTINUOUS
 10
525.111693173
 20
-122.915698960
 40
244.029652936
 50
90.164528496
 51
95.248695591
  0
LINE
  8
1
 62
7
  6
CONTINUOUS
 10
859.792939221
 20
121.312712791
 11
963.567358516
 21
121.286601948
  0
LINE
  8
1
 62
7
  6
CONTINUOUS
 10
756.018519926
 20
121.328946710
 11
859.792939221
 21
121.312712791
  0
LINE
  8
1
 62
7
  6
CONTINUOUS
 10
1009.248921910
 20
120.090740194
 11
1009.359068551
 21
120.090740194
  0
ARC
  8
1
 62
7
  6
CONTINUOUS
 10
987.649626583
 20
-104.709495691
 40
225.846066879
 50
84.483928938
 51
90.009477112
  0
LINE
  8
1
 62
7
  6
CONTINUOUS
 10
979.703403138
 20
121.231943943
 11
971.702931622
 21
121.290121427
  0
LINE
  8
1
 62
7
  6
CONTINUOUS
 10
987.612270106
 20
121.136568098
 11
979.703403138
 21
121.231943943
  0
LINE
  8
1
 62
7
  6
CONTINUOUS
 10
498.209499753
 20
145.374242424
 11
498.188379604
 21
142.874242424
  0
LINE
  8
1
 62
7
  6
CONTINUOUS
 10
580.998140162
 20
100.721043667
 11
580.998647992
 21
101.293889053
  0
LINE
  8
1
 62
7
  6
CONTINUOUS
 10
586.560867392
 20
112.143741344
 11
588.991012142
 21
112.589697552
  0
LINE
  8
1
 62
7
  6
CONTINUOUS
 10
584.436476709
 20
110.966242886
 11
586.560867392
 21
112.143741344
  0
LINE
  8
1
 62
7
  6
CONTINUOUS
 10
582.806130844
 20
109.342285818
 11
584.436476709
 21
110.966242886
  0
LINE
  8
1
 62
7
  6
CONTINUOUS
 10
581.714238974
 20
107.538603541
 11
582.806130844
 21
109.342285818
  0
LINE
  8
1
 62
7
  6
CONTINUOUS
 10
581.130284190
 20
105.772694477
 11
581.714238974
 21
107.538603541
  0
LINE
  8
1
 62
7
  6
CONTINUOUS
 10
580.930596480
 20
104.148958315
 11
581.130284190
 21
105.772694477
  0
LINE
  8
1
 62
7
  6
CONTINUOUS
 10
580.998647992
 20
101.293889053
 11
580.930596480
 21
104.148958315
  0
LINE
  8
1
 62
7
  6
CONTINUOUS
 10
666.164559688
 20
112.793301469
 11
743.329359278
 21
112.906476241
  0
LINE
  8
1
 62
7
  6
CONTINUOUS
 10
588.991012142
 20
112.589697552
 11
666.164559688
 21
112.793301469
  0
LINE
  8
1
 62
7
  6
CONTINUOUS
 10
743.329415844
 20
112.906558269
 11
756.018519926
 21
112.901208783
  0
LINE
  8
1
 62
7
  6
CONTINUOUS
 10
632.643988873
 20
121.307502776
 11
756.018519926
 21
121.328946710
  0
LINE
  8
1
 62
7
  6
CONTINUOUS
 10
548.469625708
 20
121.286601938
 11
632.643988873
 21
121.307502776
  0
LINE
  8
1
 62
7
  6
CONTINUOUS
 10
542.331360077
 20
121.274573015
 11
548.469624831
 21
121.286614211
  0
LINE
  8
1
 62
7
  6
CONTINUOUS
 10
536.222396794
 20
121.240980581
 11
542.331360077
 21
121.274573015
  0
LINE
  8
1
 62
7
  6
CONTINUOUS
 10
530.276440195
 20
121.187132881
 11
536.222396794
 21
121.240980581
  0
LINE
  8
1
 62
7
  6
CONTINUOUS
 10
524.410947376
 20
121.112947857
 11
530.276440195
 21
121.187132881
  0
LINE
  8
1
 62
7
  6
CONTINUOUS
 10
969.597476063
 20
121.274974148
 11
975.599785183
 21
121.242532802
  0
LINE
  8
1
 62
7
  6
CONTINUOUS
 10
963.567359427
 20
121.286614695
 11
969.597476063
 21
121.274974148
  0
LINE
  8
1
 62
7
  6
CONTINUOUS
 10
498.101735427
 20
131.624242424
 11
498.101713107
 21
131.624242424
  0
LINE
  8
1
 62
7
  6
CONTINUOUS
 10
501.453540119
 20
131.624242424
 11
498.101735427
 21
131.624242424
  0
LINE
  8
1
 62
7
  6
CONTINUOUS
 10
501.453540119
 20
131.624242424
 11
523.727310182
 21
131.624242424
  0
LINE
  8
1
 62
7
  6
CONTINUOUS
 10
523.727310182
 20
131.624242424
 11
548.289527648
 21
131.624242424
  0
LINE
  8
1
 62
7
  6
CONTINUOUS
 10
498.325248110
 20
157.874242424
 11
498.325185597
 21
157.874242424
  0
LINE
  8
1
 62
7
  6
CONTINUOUS
 10
991.681728378
 20
266.181773262
 11
986.019101632
 21
266.066957871
  0
LINE
  8
1
 62
7
  6
CONTINUOUS
 10
996.353234894
 20
266.331043021
 11
991.681728378
 21
266.181773262
  0
LINE
  8
1
 62
7
  6
CONTINUOUS
 10
1000.483881421
 20
266.518982496
 11
996.353234894
 21
266.331043021
  0
LINE
  8
1
 62
7
  6
CONTINUOUS
 10
1003.948526543
 20
266.740810871
 11
1000.483881421
 21
266.518982496
  0
LINE
  8
1
 62
7
  6
CONTINUOUS
 10
1006.657925827
 20
266.989768539
 11
1003.948526543
 21
266.740810871
  0
LINE
  8
1
 62
7
  6
CONTINUOUS
 10
1008.524016077
 20
267.259113514
 11
1006.657925827
 21
266.989768539
  0
LINE
  8
1
 62
7
  6
CONTINUOUS
 10
1009.506094804
 20
267.540970617
 11
1008.524016077
 21
267.259113514
  0
LINE
  8
1
 62
7
  6
CONTINUOUS
 10
503.686636154
 20
267.226172720
 11
502.530944929
 21
267.540970682
  0
LINE
  8
1
 62
7
  6
CONTINUOUS
 10
505.661331683
 20
266.959023220
 11
503.686636154
 21
267.226172720
  0
LINE
  8
1
 62
7
  6
CONTINUOUS
 10
508.459272006
 20
266.712838750
 11
505.661331683
 21
266.959023220
  0
LINE
  8
1
 62
7
  6
CONTINUOUS
 10
512.012606870
 20
266.494930795
 11
508.459272006
 21
266.712838750
  0
LINE
  8
1
 62
7
  6
CONTINUOUS
 10
516.210402844
 20
266.311078959
 11
512.012606870
 21
266.494930795
  0
LINE
  8
1
 62
7
  6
CONTINUOUS
 10
520.919279064
 20
266.167572654
 11
516.210402844
 21
266.311078959
  0
LINE
  8
1
 62
7
  6
CONTINUOUS
 10
526.017940489
 20
266.066957899
 11
520.919279064
 21
266.167572654
  0
LINE
  8
1
 62
7
  6
CONTINUOUS
 10
498.429768504
 20
167.874242424
 11
498.457576937
 21
170.374242423
  0
LINE
  8
1
 62
7
  6
CONTINUOUS
 10
521.431807039
 20
266.153577412
 11
526.013797204
 21
266.066192390
  0
LINE
  8
1
 62
7
  6
CONTINUOUS
 10
517.144234431
 20
266.276566700
 11
521.431807039
 21
266.153577412
  0
LINE
  8
1
 62
7
  6
CONTINUOUS
 10
513.274740735
 20
266.430734835
 11
517.144234431
 21
266.276566700
  0
LINE
  8
1
 62
7
  6
CONTINUOUS
 10
509.896116949
 20
266.613386221
 11
513.274740735
 21
266.430734835
  0
LINE
  8
1
 62
7
  6
CONTINUOUS
 10
507.070788811
 20
266.820453906
 11
509.896116949
 21
266.613386221
  0
LINE
  8
1
 62
7
  6
CONTINUOUS
 10
504.874527729
 20
267.047032282
 11
507.070788811
 21
266.820453906
  0
LINE
  8
1
 62
7
  6
CONTINUOUS
 10
503.347230893
 20
267.287948374
 11
504.874527729
 21
267.047032282
  0
LINE
  8
1
 62
7
  6
CONTINUOUS
 10
502.524017162
 20
267.538629338
 11
503.347230893
 21
267.287948374
  0
LINE
  8
1
 62
7
  6
CONTINUOUS
 10
500.140911906
 20
255.374242424
 11
502.833167953
 21
255.374242424
  0
LINE
  8
1
 62
7
  6
CONTINUOUS
 10
503.183167953
 20
255.374242424
 11
503.346851962
 21
255.374242424
  0
LINE
  8
1
 62
7
  6
CONTINUOUS
 10
503.346851962
 20
255.374242424
 11
506.807317510
 21
255.374242424
  0
LINE
  8
1
 62
7
  6
CONTINUOUS
 10
506.807317510
 20
255.374242424
 11
508.228188027
 21
255.374242424
  0
LINE
  8
1
 62
7
  6
CONTINUOUS
 10
508.228188027
 20
255.374242424
 11
508.598802483
 21
255.374242424
  0
LINE
  8
1
 62
7
  6
CONTINUOUS
 10
508.598802311
 20
255.374242461
 11
512.567146910
 21
255.374242424
  0
LINE
  8
1
 62
7
  6
CONTINUOUS
 10
512.567146910
 20
255.374242424
 11
517.812363377
 21
255.374242424
  0
LINE
  8
1
 62
7
  6
CONTINUOUS
 10
517.812363377
 20
255.374242424
 11
523.353742306
 21
255.374242424
  0
LINE
  8
1
 62
7
  6
CONTINUOUS
 10
523.353742306
 20
255.374242424
 11
525.123704973
 21
255.374242424
  0
LINE
  8
1
 62
7
  6
CONTINUOUS
 10
1008.687951446
 20
267.287079463
 11
1009.513022649
 21
267.538629315
  0
LINE
  8
1
 62
7
  6
CONTINUOUS
 10
1007.140990258
 20
267.044336887
 11
1008.687951446
 21
267.287079463
  0
LINE
  8
1
 62
7
  6
CONTINUOUS
 10
1004.933236806
 20
266.817556683
 11
1007.140990258
 21
267.044336887
  0
LINE
  8
1
 62
7
  6
CONTINUOUS
 10
1002.102387836
 20
266.610970654
 11
1004.933236806
 21
266.817556683
  0
LINE
  8
1
 62
7
  6
CONTINUOUS
 10
998.713724483
 20
266.428517668
 11
1002.102387836
 21
266.610970654
  0
LINE
  8
1
 62
7
  6
CONTINUOUS
 10
994.845973716
 20
266.274977338
 11
998.713724483
 21
266.428517668
  0
LINE
  8
1
 62
7
  6
CONTINUOUS
 10
990.589233536
 20
266.153326783
 11
994.845973716
 21
266.274977338
  0
LINE
  8
1
 62
7
  6
CONTINUOUS
 10
986.023244713
 20
266.066192400
 11
990.589233536
 21
266.153326783
  0
LINE
  8
1
 62
7
  6
CONTINUOUS
 10
498.606548823
 20
182.874242424
 11
498.575447761
 21
180.374242424
  0
LINE
  8
1
 62
7
  6
CONTINUOUS
 10
963.755094160
 20
131.624242424
 11
929.018519926
 21
131.624242424
  0
LINE
  8
1
 62
7
  6
CONTINUOUS
 10
929.018519926
 20
131.624242424
 11
929.018519926
 21
245.374242424
  0
LINE
  8
1
 62
7
  6
CONTINUOUS
 10
929.018519926
 20
245.374242424
 11
929.018519926
 21
255.374242424
  0
LINE
  8
1
 62
7
  6
CONTINUOUS
 10
962.855433689
 20
255.374231407
 11
951.265457107
 21
255.374227331
  0
LINE
  8
1
 62
7
  6
CONTINUOUS
 10
951.265457107
 20
255.374227331
 11
940.141619068
 21
255.374231289
  0
LINE
  8
1
 62
7
  6
CONTINUOUS
 10
940.141619068
 20
255.374231289
 11
929.018519926
 21
255.374242424
  0
LINE
  8
1
 62
7
  6
CONTINUOUS
 10
1012.441378557
 20
245.374242424
 11
1012.441404729
 21
245.374242424
  0
LINE
  8
1
 62
7
  6
CONTINUOUS
 10
1012.885239278
 20
220.374242424
 11
1012.885278754
 21
220.374242424
  0
LINE
  8
1
 62
7
  6
CONTINUOUS
 10
986.913345274
 20
255.374272441
 11
981.055765857
 21
255.374107762
  0
LINE
  8
1
 62
7
  6
CONTINUOUS
 10
981.055765857
 20
255.374107762
 11
975.095053703
 21
255.374261870
  0
LINE
  8
1
 62
7
  6
CONTINUOUS
 10
975.095053703
 20
255.374261870
 11
969.004675665
 21
255.374122449
  0
LINE
  8
1
 62
7
  6
CONTINUOUS
 10
969.004675665
 20
255.374122449
 11
962.855435923
 21
255.374300954
  0
LINE
  8
1
 62
7
  6
CONTINUOUS
 10
1013.083251654
 20
207.874242424
 11
1013.120909941
 21
205.374242424
  0
LINE
  8
1
 62
7
  6
CONTINUOUS
 10
1013.265044957
 20
195.374242424
 11
1013.299446787
 21
192.874242424
  0
LINE
  8
1
 62
7
  6
CONTINUOUS
 10
498.771994896
 20
195.374242424
 11
498.737593066
 21
192.874242424
  0
LINE
  8
1
 62
7
  6
CONTINUOUS
 10
498.953788199
 20
207.874242424
 11
498.916129912
 21
205.374242424
  0
LINE
  8
1
 62
7
  6
CONTINUOUS
 10
1013.430491030
 20
182.874242424
 11
1013.461592092
 21
180.374242424
  0
LINE
  8
1
 62
7
  6
CONTINUOUS
 10
988.683297547
 20
255.374242424
 11
986.913334879
 21
255.374242424
  0
LINE
  8
1
 62
7
  6
CONTINUOUS
 10
994.224676476
 20
255.374242424
 11
988.683297547
 21
255.374242424
  0
LINE
  8
1
 62
7
  6
CONTINUOUS
 10
999.469892943
 20
255.374242424
 11
994.224676476
 21
255.374242424
  0
LINE
  8
1
 62
7
  6
CONTINUOUS
 10
970.463593174
 20
265.908937563
 11
962.560114077
 21
265.882179481
  0
LINE
  8
1
 62
7
  6
CONTINUOUS
 10
978.268736624
 20
265.970041274
 11
970.463593174
 21
265.908937563
  0
LINE
  8
1
 62
7
  6
CONTINUOUS
 10
985.975545636
 20
266.065490192
 11
978.268736624
 21
265.970041274
  0
LINE
  8
1
 62
7
  6
CONTINUOUS
 10
533.686698469
 20
265.970787496
 11
526.061484380
 21
266.065489211
  0
LINE
  8
1
 62
7
  6
CONTINUOUS
 10
541.490652476
 20
265.909361840
 11
533.686698469
 21
265.970787496
  0
LINE
  8
1
 62
7
  6
CONTINUOUS
 10
549.478348285
 20
265.882143998
 11
541.490652476
 21
265.909361840
  0
LINE
  8
1
 62
7
  6
CONTINUOUS
 10
1003.438237542
 20
255.374242461
 11
999.469892943
 21
255.374242424
  0
LINE
  8
1
 62
7
  6
CONTINUOUS
 10
1003.808851826
 20
255.374242424
 11
1003.438237370
 21
255.374242424
  0
LINE
  8
1
 62
7
  6
CONTINUOUS
 10
1005.229722343
 20
255.374242424
 11
1003.808851826
 21
255.374242424
  0
LINE
  8
1
 62
7
  6
CONTINUOUS
 10
1008.690187891
 20
255.374242424
 11
1005.229722343
 21
255.374242424
  0
LINE
  8
1
 62
7
  6
CONTINUOUS
 10
543.032364188
 20
255.374122449
 11
549.181603930
 21
255.374300954
  0
LINE
  8
1
 62
7
  6
CONTINUOUS
 10
536.941986150
 20
255.374261870
 11
543.032364188
 21
255.374122449
  0
LINE
  8
1
 62
7
  6
CONTINUOUS
 10
530.981273996
 20
255.374107762
 11
536.941986150
 21
255.374261870
  0
LINE
  8
1
 62
7
  6
CONTINUOUS
 10
525.123694579
 20
255.374272441
 11
530.981273996
 21
255.374107762
  0
LINE
  8
1
 62
7
  6
CONTINUOUS
 10
1008.853871899
 20
255.374242424
 11
1008.690187891
 21
255.374242424
  0
LINE
  8
1
 62
7
  6
CONTINUOUS
 10
1011.896127947
 20
255.374242424
 11
1009.203871900
 21
255.374242424
  0
LINE
  8
1
 62
7
  6
CONTINUOUS
 10
1013.607271349
 20
167.874242424
 11
1013.579462916
 21
170.374242423
  0
LINE
  8
1
 62
7
  6
CONTINUOUS
 10
1013.711791743
 20
157.874242424
 11
1013.711854256
 21
157.874242424
  0
LINE
  8
1
 62
7
  6
CONTINUOUS
 10
499.151800575
 20
220.374242424
 11
499.151761099
 21
220.374242424
  0
LINE
  8
1
 62
7
  6
CONTINUOUS
 10
988.309729671
 20
131.624242424
 11
963.747512205
 21
131.624242424
  0
LINE
  8
1
 62
7
  6
CONTINUOUS
 10
1010.583499733
 20
131.624242425
 11
988.309729671
 21
131.624242424
  0
LINE
  8
1
 62
7
  6
CONTINUOUS
 10
1010.583499733
 20
131.624242425
 11
1013.935304426
 21
131.624242424
  0
LINE
  8
1
 62
7
  6
CONTINUOUS
 10
1013.935304426
 20
131.624242424
 11
1013.935326746
 21
131.624242424
  0
LINE
  8
1
 62
7
  6
CONTINUOUS
 10
1013.827540100
 20
145.374242424
 11
1013.848660249
 21
142.874242424
  0
LINE
  8
1
 62
7
  6
CONTINUOUS
 10
499.595661296
 20
245.374242424
 11
499.595635124
 21
245.374242424
  0
LINE
  8
1
 62
7
  6
CONTINUOUS
 10
549.555718755
 20
265.882089003
 11
549.478363368
 21
265.882179378
  0
LINE
  8
1
 62
7
  6
CONTINUOUS
 10
962.560113385
 20
265.882181054
 11
962.481210538
 21
265.882088853
  0
LINE
  8
1
 62
7
  6
CONTINUOUS
 10
571.895420783
 20
255.374231289
 11
583.018519926
 21
255.374242424
  0
LINE
  8
1
 62
7
  6
CONTINUOUS
 10
560.771582745
 20
255.374227331
 11
571.895420783
 21
255.374231289
  0
LINE
  8
1
 62
7
  6
CONTINUOUS
 10
549.181606163
 20
255.374231407
 11
560.771582745
 21
255.374227331
  0
LINE
  8
1
 62
7
  6
CONTINUOUS
 10
583.018519926
 20
245.374242424
 11
583.018519926
 21
255.374242424
  0
LINE
  8
1
 62
7
  6
CONTINUOUS
 10
583.018519926
 20
131.624242424
 11
583.018519926
 21
245.374242424
  0
LINE
  8
1
 62
7
  6
CONTINUOUS
 10
548.281945693
 20
131.624242424
 11
583.018519926
 21
131.624242424
  0
LINE
  8
1
 62
7
  6
CONTINUOUS
 10
1012.246138207
 20
255.374242424
 11
1012.246127947
 21
255.374242424
  0
LINE
  8
1
 62
7
  6
CONTINUOUS
 10
1012.488645640
 20
242.874242424
 11
1012.488615977
 21
242.874242424
  0
LINE
  8
1
 62
7
  6
CONTINUOUS
 10
1012.715357100
 20
230.374242424
 11
1012.715316595
 21
230.374242424
  0
LINE
  8
1
 62
7
  6
CONTINUOUS
 10
1012.926159972
 20
217.874242424
 11
1012.926122568
 21
217.874242424
  0
LINE
  8
1
 62
7
  6
CONTINUOUS
 10
1013.461606497
 20
180.374242424
 11
1013.461592092
 21
180.374242424
  0
LINE
  8
1
 62
7
  6
CONTINUOUS
 10
1013.711854256
 20
157.874242424
 11
1013.736332203
 21
155.374242424
  0
LINE
  8
1
 62
7
  6
CONTINUOUS
 10
1012.885278754
 20
220.374242424
 11
1012.715357100
 21
230.374242424
  0
LINE
  8
1
 62
7
  6
CONTINUOUS
 10
1013.083251654
 20
207.874242424
 11
1012.926159972
 21
217.874242424
  0
LINE
  8
1
 62
7
  6
CONTINUOUS
 10
1013.265044957
 20
195.374242424
 11
1013.120909941
 21
205.374242424
  0
LINE
  8
1
 62
7
  6
CONTINUOUS
 10
1013.331827488
 20
190.476449011
 11
1013.299446787
 21
192.874242424
  0
LINE
  8
1
 62
7
  6
CONTINUOUS
 10
1013.430491030
 20
182.874242424
 11
1013.331827143
 21
190.476448644
  0
LINE
  8
1
 62
7
  6
CONTINUOUS
 10
1013.579462916
 20
170.374242423
 11
1013.461606497
 21
180.374242424
  0
LINE
  8
1
 62
7
  6
CONTINUOUS
 10
1013.711854256
 20
157.874242424
 11
1013.607271349
 21
167.874242424
  0
LINE
  8
1
 62
7
  6
CONTINUOUS
 10
1013.827540100
 20
145.374242424
 11
1013.736332203
 21
155.374242424
  0
LINE
  8
1
 62
7
  6
CONTINUOUS
 10
1013.935326746
 20
131.624242424
 11
1013.848660249
 21
142.874242424
  0
LINE
  8
1
 62
7
  6
CONTINUOUS
 10
1008.853871899
 20
255.374242424
 11
1009.331496868
 21
255.374242424
  0
LINE
  8
1
 62
7
  6
CONTINUOUS
 10
1009.331496868
 20
255.374242424
 11
1009.796084248
 21
255.374242424
  0
LINE
  8
1
 62
7
  6
CONTINUOUS
 10
1009.796084248
 20
255.374242424
 11
1010.234596453
 21
255.374242424
  0
LINE
  8
1
 62
7
  6
CONTINUOUS
 10
1010.234596453
 20
255.374242424
 11
1010.634788228
 21
255.374242424
  0
LINE
  8
1
 62
7
  6
CONTINUOUS
 10
1010.634788228
 20
255.374242424
 11
1010.987702704
 21
255.374242424
  0
LINE
  8
1
 62
7
  6
CONTINUOUS
 10
1010.987702704
 20
255.374242424
 11
1011.285235980
 21
255.374242424
  0
LINE
  8
1
 62
7
  6
CONTINUOUS
 10
1011.285235980
 20
255.374242424
 11
1011.524150374
 21
255.374242424
  0
LINE
  8
1
 62
7
  6
CONTINUOUS
 10
1011.524150374
 20
255.374242424
 11
1011.720724283
 21
255.374242424
  0
LINE
  8
1
 62
7
  6
CONTINUOUS
 10
1011.720724283
 20
255.374242424
 11
1012.246127947
 21
255.374242424
  0
LINE
  8
1
 62
7
  6
CONTINUOUS
 10
1012.246138207
 20
255.374242424
 11
1012.270994437
 21
254.124069006
  0
LINE
  8
1
 62
7
  6
CONTINUOUS
 10
1012.270994437
 20
254.124069006
 11
1012.295797564
 21
252.873916147
  0
LINE
  8
1
 62
7
  6
CONTINUOUS
 10
1012.295797564
 20
252.873916147
 11
1012.320494487
 21
251.623804407
  0
LINE
  8
1
 62
7
  6
CONTINUOUS
 10
1012.320494487
 20
251.623804407
 11
1012.345032103
 21
250.373754346
  0
LINE
  8
1
 62
7
  6
CONTINUOUS
 10
1012.345032103
 20
250.373754346
 11
1012.369360138
 21
249.123785428
  0
LINE
  8
1
 62
7
  6
CONTINUOUS
 10
1012.369360138
 20
249.123785428
 11
1012.393487643
 21
247.873894149
  0
LINE
  8
1
 62
7
  6
CONTINUOUS
 10
1012.393487643
 20
247.873894149
 11
1012.417479978
 21
246.624055203
  0
LINE
  8
1
 62
7
  6
CONTINUOUS
 10
1012.417479978
 20
246.624055203
 11
1012.441404729
 21
245.374242424
  0
LINE
  8
1
 62
7
  6
CONTINUOUS
 10
1012.246127947
 20
255.374242424
 11
1012.246138207
 21
255.374242424
  0
LINE
  8
1
 62
7
  6
CONTINUOUS
 10
1012.488645640
 20
242.874242424
 11
1012.511926536
 21
241.624026790
  0
LINE
  8
1
 62
7
  6
CONTINUOUS
 10
1012.511926536
 20
241.624026790
 11
1012.535153942
 21
240.373836720
  0
LINE
  8
1
 62
7
  6
CONTINUOUS
 10
1012.535153942
 20
240.373836720
 11
1012.558274370
 21
239.123697779
  0
LINE
  8
1
 62
7
  6
CONTINUOUS
 10
1012.558274370
 20
239.123697779
 11
1012.581234328
 21
237.873635532
  0
LINE
  8
1
 62
7
  6
CONTINUOUS
 10
1012.581234328
 20
237.873635532
 11
1012.603983176
 21
236.623674180
  0
LINE
  8
1
 62
7
  6
CONTINUOUS
 10
1012.603983176
 20
236.623674180
 11
1012.626530032
 21
235.373809367
  0
LINE
  8
1
 62
7
  6
CONTINUOUS
 10
1012.626530032
 20
235.373809367
 11
1012.648940733
 21
234.124009627
  0
LINE
  8
1
 62
7
  6
CONTINUOUS
 10
1012.648940733
 20
234.124009627
 11
1012.671283356
 21
232.874242424
  0
LINE
  8
1
 62
7
  6
CONTINUOUS
 10
1012.488615959
 20
242.874242424
 11
1012.488645640
 21
242.874242424
  0
ARC
  8
1
 62
7
  6
CONTINUOUS
 10
1012.715330534
 20
230.379614413
 40
0.005372054
 50
269.887618514
 51
270.283338450
  0
LINE
  8
1
 62
7
  6
CONTINUOUS
 10
1012.926159972
 20
217.874242424
 11
1012.885239278
 21
220.374242424
  0
LINE
  8
1
 62
7
  6
CONTINUOUS
 10
1012.715330534
 20
230.379614413
 11
1012.671283356
 21
232.874242424
  0
LINE
  8
1
 62
7
  6
CONTINUOUS
 10
1012.488615959
 20
242.874242424
 11
1012.441404729
 21
245.374242424
  0
LINE
  8
1
 62
7
  6
CONTINUOUS
 10
1013.331828012
 20
190.476449011
 11
1013.430491899
 21
182.874242791
  0
LINE
  8
1
 62
7
  6
CONTINUOUS
 10
1013.299447311
 20
192.874242423
 11
1013.331828012
 21
190.476449011
  0
LINE
  8
1
 62
7
  6
CONTINUOUS
 10
1013.491958652
 20
177.873445148
 11
1013.506994834
 21
176.623172106
  0
LINE
  8
1
 62
7
  6
CONTINUOUS
 10
1010.578298059
 20
131.624242424
 11
1013.935326746
 21
131.624242424
  0
LINE
  8
1
 62
7
  6
CONTINUOUS
 10
952.306142325
 20
265.869353343
 11
962.481210538
 21
265.882088853
  0
LINE
  8
1
 62
7
  6
CONTINUOUS
 10
941.217377005
 20
265.853871430
 11
952.306142325
 21
265.869353343
  0
LINE
  8
1
 62
7
  6
CONTINUOUS
 10
929.214914579
 20
265.835643115
 11
941.217377005
 21
265.853871430
  0
LINE
  8
1
 62
7
  6
CONTINUOUS
 10
924.977009715
 20
265.828901976
 11
929.214914579
 21
265.835643115
  0
LINE
  8
1
 62
7
  6
CONTINUOUS
 10
920.635952103
 20
265.821850780
 11
924.977009715
 21
265.828901976
  0
LINE
  8
1
 62
7
  6
CONTINUOUS
 10
916.191741742
 20
265.814489525
 11
920.635952103
 21
265.821850780
  0
LINE
  8
1
 62
7
  6
CONTINUOUS
 10
911.644378633
 20
265.806818213
 11
916.191741742
 21
265.814489525
  0
LINE
  8
1
 62
7
  6
CONTINUOUS
 10
908.658547609
 20
265.801706607
 11
911.644378633
 21
265.806818213
  0
LINE
  8
1
 62
7
  6
CONTINUOUS
 10
904.686755211
 20
265.794832974
 11
908.658547609
 21
265.801706607
  0
LINE
  8
1
 62
7
  6
CONTINUOUS
 10
899.982073332
 20
265.786626227
 11
904.686755211
 21
265.794832974
  0
LINE
  8
1
 62
7
  6
CONTINUOUS
 10
894.544501973
 20
265.777086365
 11
899.982073332
 21
265.786626227
  0
LINE
  8
1
 62
7
  6
CONTINUOUS
 10
888.374041134
 20
265.766213389
 11
894.544501973
 21
265.777086365
  0
LINE
  8
1
 62
7
  6
CONTINUOUS
 10
881.830246866
 20
265.754654382
 11
888.374041134
 21
265.766213389
  0
LINE
  8
1
 62
7
  6
CONTINUOUS
 10
874.180680993
 20
265.741208700
 11
881.830246866
 21
265.754654382
  0
LINE
  8
1
 62
7
  6
CONTINUOUS
 10
867.531491733
 20
265.729622037
 11
874.180680993
 21
265.741208700
  0
LINE
  8
1
 62
7
  6
CONTINUOUS
 10
861.882679086
 20
265.719894392
 11
867.531491733
 21
265.729622037
  0
LINE
  8
1
 62
7
  6
CONTINUOUS
 10
858.534959175
 20
265.714209771
 11
861.882679086
 21
265.719894392
  0
LINE
  8
1
 62
7
  6
CONTINUOUS
 10
853.748690235
 20
265.706219282
 11
858.534959175
 21
265.714209771
  0
LINE
  8
1
 62
7
  6
CONTINUOUS
 10
849.072118133
 20
265.698575677
 11
853.748690235
 21
265.706219282
  0
LINE
  8
1
 62
7
  6
CONTINUOUS
 10
844.505242869
 20
265.691278956
 11
849.072118133
 21
265.698575677
  0
LINE
  8
1
 62
7
  6
CONTINUOUS
 10
840.048064443
 20
265.684329119
 11
844.505242869
 21
265.691278956
  0
LINE
  8
1
 62
7
  6
CONTINUOUS
 10
835.700582855
 20
265.677726165
 11
840.048064443
 21
265.684329119
  0
LINE
  8
1
 62
7
  6
CONTINUOUS
 10
827.546455064
 20
265.665859340
 11
835.700582855
 21
265.677726165
  0
LINE
  8
1
 62
7
  6
CONTINUOUS
 10
819.808616504
 20
265.655308906
 11
827.546455064
 21
265.665859340
  0
LINE
  8
1
 62
7
  6
CONTINUOUS
 10
812.487067176
 20
265.646074865
 11
819.808616504
 21
265.655308906
  0
LINE
  8
1
 62
7
  6
CONTINUOUS
 10
804.981174259
 20
265.637504447
 11
812.487067176
 21
265.646074865
  0
LINE
  8
1
 62
7
  6
CONTINUOUS
 10
796.340070574
 20
265.628866898
 11
804.981174259
 21
265.637504447
  0
LINE
  8
1
 62
7
  6
CONTINUOUS
 10
787.910107048
 20
265.621789308
 11
796.340070574
 21
265.628866898
  0
LINE
  8
1
 62
7
  6
CONTINUOUS
 10
779.691283681
 20
265.616271676
 11
787.910107048
 21
265.621789308
  0
LINE
  8
1
 62
7
  6
CONTINUOUS
 10
765.539970663
 20
265.610298761
 11
779.691283681
 21
265.616271676
  0
LINE
  8
1
 62
7
  6
CONTINUOUS
 10
752.003051463
 20
265.609299899
 11
765.539970663
 21
265.610298761
  0
LINE
  8
1
 62
7
  6
CONTINUOUS
 10
738.127808125
 20
265.613270152
 11
752.003051463
 21
265.609299899
  0
LINE
  8
1
 62
7
  6
CONTINUOUS
 10
723.580855634
 20
265.622207788
 11
738.127808125
 21
265.613270152
  0
LINE
  8
1
 62
7
  6
CONTINUOUS
 10
708.362193988
 20
265.636112807
 11
723.580855634
 21
265.622207788
  0
LINE
  8
1
 62
7
  6
CONTINUOUS
 10
694.932808981
 20
265.651803687
 11
708.362193988
 21
265.636112807
  0
LINE
  8
1
 62
7
  6
CONTINUOUS
 10
681.105982185
 20
265.670693891
 11
694.932808981
 21
265.651803687
  0
LINE
  8
1
 62
7
  6
CONTINUOUS
 10
668.116433084
 20
265.690352259
 11
681.105982185
 21
265.670693891
  0
LINE
  8
1
 62
7
  6
CONTINUOUS
 10
654.140297578
 20
265.713129287
 11
668.116433084
 21
265.690352259
  0
LINE
  8
1
 62
7
  6
CONTINUOUS
 10
651.941206148
 20
265.716844921
 11
654.140297578
 21
265.713129287
  0
LINE
  8
1
 62
7
  6
CONTINUOUS
 10
650.177672395
 20
265.719848823
 11
651.941206148
 21
265.716844921
  0
LINE
  8
1
 62
7
  6
CONTINUOUS
 10
648.286901692
 20
265.723089122
 11
650.177672395
 21
265.719848823
  0
LINE
  8
1
 62
7
  6
CONTINUOUS
 10
646.268894039
 20
265.726565818
 11
648.286901692
 21
265.723089122
  0
LINE
  8
1
 62
7
  6
CONTINUOUS
 10
644.123649436
 20
265.730278910
 11
646.268894039
 21
265.726565818
  0
LINE
  8
1
 62
7
  6
CONTINUOUS
 10
641.851167883
 20
265.734228399
 11
644.123649436
 21
265.730278910
  0
LINE
  8
1
 62
7
  6
CONTINUOUS
 10
637.159474876
 20
265.742424773
 11
641.851167883
 21
265.734228399
  0
LINE
  8
1
 62
7
  6
CONTINUOUS
 10
632.004050505
 20
265.751482724
 11
637.159474876
 21
265.742424773
  0
LINE
  8
1
 62
7
  6
CONTINUOUS
 10
626.356948924
 20
265.761451324
 11
632.004050505
 21
265.751482724
  0
LINE
  8
1
 62
7
  6
CONTINUOUS
 10
620.563606438
 20
265.771677772
 11
626.356948924
 21
265.761451324
  0
LINE
  8
1
 62
7
  6
CONTINUOUS
 10
613.293008414
 20
265.784457265
 11
620.563606438
 21
265.771677772
  0
LINE
  8
1
 62
7
  6
CONTINUOUS
 10
607.205475717
 20
265.795084147
 11
613.293008414
 21
265.784457265
  0
LINE
  8
1
 62
7
  6
CONTINUOUS
 10
602.301008347
 20
265.803558417
 11
607.205475717
 21
265.795084147
  0
LINE
  8
1
 62
7
  6
CONTINUOUS
 10
595.813416738
 20
265.814544069
 11
602.301008347
 21
265.803558417
  0
LINE
  8
1
 62
7
  6
CONTINUOUS
 10
588.671339886
 20
265.826303506
 11
595.813416738
 21
265.814544069
  0
LINE
  8
1
 62
7
  6
CONTINUOUS
 10
574.416401379
 20
265.848556587
 11
588.671339886
 21
265.826303506
  0
LINE
  8
1
 62
7
  6
CONTINUOUS
 10
561.377861002
 20
265.867151753
 11
574.416401379
 21
265.848556587
  0
LINE
  8
1
 62
7
  6
CONTINUOUS
 10
549.555718755
 20
265.882089003
 11
561.377861002
 21
265.867151753
  0
LINE
  8
1
 62
7
  6
CONTINUOUS
 10
604.753317290
 20
265.801928392
 11
549.555964340
 21
265.882664469
  0
LINE
  8
1
 62
7
  6
CONTINUOUS
 10
659.944700563
 20
265.708777884
 11
604.753317290
 21
265.801928392
  0
LINE
  8
1
 62
7
  6
CONTINUOUS
 10
715.145282748
 20
265.636613827
 11
659.944700563
 21
265.708777884
  0
LINE
  8
1
 62
7
  6
CONTINUOUS
 10
756.487411801
 20
265.620793567
 11
715.145282748
 21
265.636613827
  0
LINE
  8
1
 62
7
  6
CONTINUOUS
 10
797.833283584
 20
265.642265379
 11
756.487411801
 21
265.620793567
  0
LINE
  8
1
 62
7
  6
CONTINUOUS
 10
839.175192170
 20
265.690911633
 11
797.833283584
 21
265.642265379
  0
LINE
  8
1
 62
7
  6
CONTINUOUS
 10
880.505431632
 20
265.756614700
 11
839.175192170
 21
265.690911633
  0
LINE
  8
1
 62
7
  6
CONTINUOUS
 10
921.490752136
 20
265.825474017
 11
880.505431632
 21
265.756614700
  0
LINE
  8
1
 62
7
  6
CONTINUOUS
 10
962.480964891
 20
265.882664342
 11
921.490752136
 21
265.825474017
  0
DIMENSION
  8
2
 62
4
  6
CONTINUOUS
  2
*D741
 70
0
  3
STANDARD
 10
791.018519927
 20
-396.329910544
 11
773.518519927
 21
-396.329910544
 14
791.018519927
 24
-235.842395498
 13
756.018519926
 23
-218.342395499
 50
0.000000000
 53
0.000000000
  0
DIMENSION
  8
3
 62
4
  6
CONTINUOUS
  2
*D742
 70
0
  3
STANDARD
 10
1463.379082552
 20
324.124242424
 11
1463.379082552
 21
170.719145183
 14
1385.982374717
 24
324.124242424
 13
1397.982374717
 23
17.314047942
 50
90.000000000
 53
90.000000000
  0
DIMENSION
  8
2
 62
4
  6
CONTINUOUS
  2
*D743
 70
0
  3
STANDARD
 10
1435.323111499
 20
17.314047942
 11
1435.323111499
 21
84.469145183
 14
1397.982374717
 24
17.314047942
 13
1412.152314277
 23
151.624242424
 50
90.000000000
 53
90.000000000
  0
DIMENSION
  8
2
 62
4
  6
CONTINUOUS
  2
*D744
 70
0
  3
STANDARD
 10
1435.449072032
 20
151.624242424
 11
1435.449072032
 21
160.374242424
 14
1412.152314277
 24
151.624242424
 13
1417.982374717
 23
169.124242424
 50
90.000000000
 53
90.000000000
  0
DIMENSION
  8
2
 62
4
  6
CONTINUOUS
  2
*D745
 70
0
  3
STANDARD
 10
1198.033337710
 20
358.221765146
 11
1285.507856214
 21
358.221765146
 14
1198.033337710
 24
248.968781222
 13
1372.982374717
 23
319.095865172
 50
0.000000000
 53
0.000000000
  0
LINE
  8
2
 62
3
  6
DASHDOT2
 10
1386.940298421
 20
151.624242424
 11
1412.152314277
 21
151.624242424
  0
LINE
  8
1
 62
7
  6
CONTINUOUS
 10
1398.982374717
 20
139.124242424
 11
1397.982374717
 21
139.124242424
  0
LINE
  8
1
 62
7
  6
CONTINUOUS
 10
1398.982374717
 20
164.124242424
 11
1398.982374717
 21
139.124242424
  0
LINE
  8
1
 62
7
  6
CONTINUOUS
 10
1397.982374717
 20
164.124242424
 11
1398.982374717
 21
164.124242424
  0
DIMENSION
  8
2
 62
4
  6
CONTINUOUS
  2
*D750
 70
0
  3
STANDARD
 10
1372.982374717
 20
357.986128407
 11
1385.482374717
 21
357.986128407
 14
1372.982374717
 24
319.095865172
 13
1397.982374717
 23
320.934436905
 50
0.000000000
 53
0.000000000
  0
DIMENSION
  8
2
 62
4
  6
CONTINUOUS
  2
*D751
 70
0
  3
STANDARD
 10
1198.020786835
 20
371.318747363
 11
1298.001580776
 21
371.318747363
 14
1198.020786835
 24
252.468381024
 13
1397.982374717
 23
320.934436905
 50
0.000000000
 53
0.000000000
  0
DIMENSION
  8
3
 62
4
  6
CONTINUOUS
  2
*D752
 70
1
  3
STANDARD
 10
1100.312004036
 20
-66.532201017
 11
1100.312004036
 21
-56.546835421
 14
756.018519926
 24
-66.532201017
 13
756.018519926
 23
-63.342394306
 50
90.000000000
 53
90.000000000
  0
DIMENSION
  8
3
 62
4
  6
CONTINUOUS
  2
*D753
 70
0
  3
STANDARD
 10
443.698307531
 20
-218.342395499
 11
443.698307531
 21
-140.842394902
 14
480.212006949
 24
-218.342395499
 13
756.018519926
 23
-63.342394306
 50
90.000000000
 53
90.000000000
  0
DIMENSION
  8
3
 62
4
  6
CONTINUOUS
  2
*D754
 70
0
  3
STANDARD
 10
443.698307531
 20
-218.342395499
 11
443.698307531
 21
-294.247492740
 14
467.708325445
 24
-218.342395499
 13
756.018519926
 23
-370.152589981
 50
90.000000000
 53
90.000000000
  0
DIMENSION
  8
3
 62
4
  6
CONTINUOUS
  2
*D755
 70
0
  3
STANDARD
 10
1100.305155384
 20
-370.152589981
 11
1100.305155384
 21
-302.997492739
 14
756.018519926
 24
-370.152589981
 13
971.018519927
 23
-235.842395498
 50
90.000000000
 53
90.000000000
  0
DIMENSION
  8
3
 62
4
  6
CONTINUOUS
  2
*D756
 70
0
  3
STANDARD
 10
1072.492956237
 20
-235.842395498
 11
1072.492956237
 21
-227.092395498
 14
971.018519927
 24
-235.842395498
 13
1044.328714408
 23
-218.342395499
 50
90.000000000
 53
90.000000000
  0
DIMENSION
  8
3
 62
4
  6
CONTINUOUS
  2
*D757
 70
0
  3
STANDARD
 10
1100.305155384
 20
-235.842395498
 11
1100.305155384
 21
-151.187298257
 14
971.018519927
 24
-235.842395498
 13
756.018519926
 23
-66.532201017
 50
90.000000000
 53
90.000000000
  0
CIRCLE
  8
1
 62
7
  6
HIDDEN2
 10
611.018519927
 20
-235.842395498
 40
9.000000000
  0
CIRCLE
  8
1
 62
7
  6
HIDDEN2
 10
971.018519927
 20
-235.842395498
 40
9.000000000
  0
DIMENSION
  8
3
 62
4
  6
CONTINUOUS
  2
*D760
 70
1
  3
STANDARD
 10
1024.328714408
 20
-26.649633942
 11
756.018519926
 21
-26.649633942
 14
1024.328714408
 24
-218.342395499
 13
487.708325445
 23
-218.342395499
 50
0.000000000
 53
0.000000000
  0
DIMENSION
  8
3
 62
4
  6
CONTINUOUS
  2
*D761
 70
0
  3
STANDARD
 10
1024.328714408
 20
-408.116016015
 11
997.673617168
 21
-408.116016015
 14
1024.328714408
 24
-218.342395499
 13
971.018519927
 23
-235.842395498
 50
0.000000000
 53
0.000000000
  0
DIMENSION
  8
3
 62
4
  6
CONTINUOUS
  2
*D762
 70
1
  3
STANDARD
 10
971.018519927
 20
-408.116016015
 11
881.018519927
 21
-408.116016015
 14
971.018519927
 24
-235.842395498
 13
791.018519927
 23
-235.842395498
 50
0.000000000
 53
0.000000000
  0
DIMENSION
  8
3
 62
4
  6
CONTINUOUS
  2
*D763
 70
1
  3
STANDARD
 10
791.018519927
 20
-408.116016015
 11
701.018519927
 21
-408.116016015
 14
791.018519927
 24
-235.842395498
 13
611.018519927
 23
-235.842395498
 50
0.000000000
 53
0.000000000
  0
DIMENSION
  8
3
 62
4
  6
CONTINUOUS
  2
*D764
 70
0
  3
STANDARD
 10
611.018519927
 20
-408.116016015
 11
549.363422686
 21
-408.116016015
 14
611.018519927
 24
-235.842395498
 13
487.708325445
 23
-218.342395499
 50
0.000000000
 53
0.000000000
  0
DIMENSION
  8
3
 62
4
  6
CONTINUOUS
  2
*D765
 70
1
  3
STANDARD
 10
1024.328714408
 20
371.134011642
 11
756.018519926
 21
371.134011642
 14
1024.328714408
 24
169.124242424
 13
487.708325445
 23
169.124242424
 50
0.000000000
 53
0.000000000
  0
DIMENSION
  8
3
 62
4
  6
CONTINUOUS
  2
*D766
 70
0
  3
STANDARD
 10
756.018519926
 20
358.079569703
 11
890.173617167
 21
358.079569703
 14
756.018519926
 24
346.095999957
 13
1024.328714408
 23
169.124242424
 50
0.000000000
 53
0.000000000
  0
DIMENSION
  8
3
 62
4
  6
CONTINUOUS
  2
*D767
 70
0
  3
STANDARD
 10
487.708325445
 20
358.487521015
 11
621.863422686
 21
358.487521015
 14
487.708325445
 24
169.124242424
 13
756.018519926
 23
340.934436906
 50
0.000000000
 53
0.000000000
  0
DIMENSION
  8
3
 62
4
  6
CONTINUOUS
  2
*D768
 70
0
  3
STANDARD
 10
570.018519927
 20
346.095999957
 11
663.018519927
 21
346.095999957
 14
570.018519927
 24
327.345249300
 13
756.018519926
 23
340.934436906
 50
0.000000000
 53
0.000000000
  0
DIMENSION
  8
3
 62
4
  6
CONTINUOUS
  2
*D769
 70
0
  3
STANDARD
 10
942.018519926
 20
346.095999957
 11
849.018519926
 21
346.095999957
 14
942.018519926
 24
327.345249300
 13
756.018519926
 23
340.934436906
 50
0.000000000
 53
0.000000000
  0
DIMENSION
  8
3
 62
4
  6
CONTINUOUS
  2
*D770
 70
1
  3
STANDARD
 10
1079.168723241
 20
324.124248256
 11
1079.168723241
 21
170.719148099
 14
756.018519926
 24
324.124248256
 13
756.018519926
 23
17.314047941
 50
90.000000000
 53
90.000000000
  0
DIMENSION
  8
3
 62
4
  6
CONTINUOUS
  2
*D771
 70
0
  3
STANDARD
 10
1056.319395405
 20
320.934436906
 11
1056.319395405
 21
245.029339665
 14
756.018519926
 24
320.934436906
 13
1044.328714408
 23
169.124242424
 50
90.000000000
 53
90.000000000
  0
DIMENSION
  8
3
 62
4
  6
CONTINUOUS
  2
*D772
 70
0
  3
STANDARD
 10
1056.506021092
 20
17.314047941
 11
1056.506021092
 21
93.219145182
 14
756.018519926
 24
17.314047941
 13
1044.328714408
 23
169.124242424
 50
90.000000000
 53
90.000000000
  0
LINE
  8
2
 62
3
  6
DASHDOT2
 10
942.018519926
 20
327.345249300
 11
942.018519926
 21
312.599322397
  0
LINE
  8
2
 62
3
  6
DASHDOT2
 10
570.018519927
 20
327.345249300
 11
570.018519927
 21
312.599322397
  0
ARC
  8
1
 62
7
  6
CONTINUOUS
 10
891.018519926
 20
22.924242424
 40
6.290000000
 50
288.539902705
 51
315.081951085
  0
ARC
  8
1
 62
7
  6
CONTINUOUS
 10
891.018519926
 20
22.924242424
 40
6.290000000
 50
224.918048915
 51
251.460097295
  0
LINE
  8
1
 62
7
  6
CONTINUOUS
 10
895.618519926
 20
18.835954274
 11
895.618519926
 21
18.928284650
  0
ARC
  8
1
 62
7
  6
CONTINUOUS
 10
895.118519926
 20
18.835954274
 40
0.500000000
 50
315.081951085
 51
0.000000000
  0
ARC
  8
1
 62
7
  6
CONTINUOUS
 10
886.918519926
 20
18.835954274
 40
0.500000000
 50
180.000000000
 51
224.918048915
  0
ARC
  8
1
 62
7
  6
CONTINUOUS
 10
621.018519926
 20
22.924242424
 40
6.290000000
 50
288.539902705
 51
315.081951085
  0
ARC
  8
1
 62
7
  6
CONTINUOUS
 10
621.018519926
 20
22.924242424
 40
6.290000000
 50
224.918048915
 51
251.460097295
  0
ARC
  8
1
 62
7
  6
CONTINUOUS
 10
625.118519926
 20
18.835954274
 40
0.500000000
 50
315.081951085
 51
0.000000000
  0
ARC
  8
1
 62
7
  6
CONTINUOUS
 10
616.918519926
 20
18.835954274
 40
0.500000000
 50
180.000000000
 51
224.918048915
  0
LINE
  8
1
 62
7
  6
CONTINUOUS
 10
616.418519926
 20
18.928284650
 11
616.418519926
 21
18.835954274
  0
LINE
  8
1
 62
7
  6
CONTINUOUS
 10
1372.483059950
 20
319.598074445
 11
1365.468962259
 21
319.230481162
  0
LINE
  8
1
 62
7
  6
CONTINUOUS
 10
1372.493030494
 20
18.649887868
 11
1372.982374717
 21
19.114311433
  0
LINE
  8
1
 62
7
  6
CONTINUOUS
 10
1365.429017077
 20
19.020097124
 11
1372.493030494
 21
18.649887868
  0
LINE
  8
1
 62
7
  6
CONTINUOUS
 10
1362.982374717
 20
21.598320217
 11
1365.429017077
 21
19.020097124
  0
LINE
  8
1
 62
7
  6
CONTINUOUS
 10
1241.137787099
 20
310.211129511
 11
1238.723265468
 21
310.084589794
  0
LINE
  8
1
 62
7
  6
CONTINUOUS
 10
1251.641251400
 20
310.761592750
 11
1249.140448908
 21
310.630531245
  0
LINE
  8
1
 62
7
  6
CONTINUOUS
 10
1351.202365674
 20
315.979369652
 11
1262.928164279
 21
311.353114789
  0
LINE
  8
1
 62
7
  6
CONTINUOUS
 10
1339.870274081
 20
22.863004950
 11
1362.982374717
 21
21.651751082
  0
ARC
  8
1
 62
7
  6
CONTINUOUS
 10
1685.929217809
 20
252.468381024
 40
487.908430975
 50
178.748637560
 51
195.355584358
  0
LINE
  8
1
 62
7
  6
CONTINUOUS
 10
1220.373104478
 20
115.042587452
 11
1220.402792408
 21
114.916972613
  0
LINE
  8
1
 62
7
  6
CONTINUOUS
 10
1215.420167869
 20
123.276337229
 11
1217.789086044
 21
121.369641088
  0
ARC
  8
1
 62
7
  6
CONTINUOUS
 10
1240.816643154
 20
270.139405230
 40
40.000000000
 50
143.595258716
 51
147.068223141
  0
ARC
  8
1
 62
7
  6
CONTINUOUS
 10
1240.816643154
 20
270.139405230
 40
40.000000000
 50
159.153242542
 51
162.933564157
  0
ARC
  8
1
 62
7
  6
CONTINUOUS
 10
1240.816643154
 20
270.139405230
 40
40.000000000
 50
124.664799142
 51
127.448701631
  0
ARC
  8
1
 62
7
  6
CONTINUOUS
 10
1240.816643154
 20
270.139405230
 40
40.000000000
 50
175.713694822
 51
177.857571644
  0
ARC
  8
1
 62
7
  6
CONTINUOUS
 10
1240.816643154
 20
270.139405230
 40
40.000000000
 50
104.750305412
 51
108.431289139
  0
LINE
  8
1
 62
7
  6
CONTINUOUS
 10
1200.847428229
 20
271.639130821
 11
1200.655131608
 21
265.623376343
  0
LINE
  8
1
 62
7
  6
CONTINUOUS
 10
1207.212864806
 20
291.901271747
 11
1208.121684581
 21
290.878849500
  0
LINE
  8
1
 62
7
  6
CONTINUOUS
 10
1202.552633192
 20
281.908768051
 11
1203.421865331
 21
280.659246852
  0
LINE
  8
1
 62
7
  6
CONTINUOUS
 10
1200.503348155
 20
265.609077462
 11
1198.075376304
 21
263.103632209
  0
LINE
  8
1
 62
7
  6
CONTINUOUS
 10
1216.442999924
 20
301.904320163
 11
1217.305864187
 21
300.825739835
  0
LINE
  8
1
 62
7
  6
CONTINUOUS
 10
1228.129004004
 20
308.071529848
 11
1228.129004004
 21
306.786110186
  0
LINE
  8
1
 62
7
  6
CONTINUOUS
 10
1238.629004004
 20
310.079526623
 11
1238.629004004
 21
308.958624481
  0
LINE
  8
1
 62
7
  6
CONTINUOUS
 10
1249.129004004
 20
310.628763447
 11
1249.129004004
 21
309.508936421
  0
LINE
  8
1
 62
7
  6
CONTINUOUS
 10
1372.982374717
 20
319.124242423
 11
1372.483059950
 21
319.598074445
  0
LINE
  8
1
 62
7
  6
CONTINUOUS
 10
1365.468962259
 20
319.230481162
 11
1363.902640754
 21
317.579922690
  0
ARC
  8
1
 62
7
  6
CONTINUOUS
 10
1339.948765655
 20
24.786994245
 40
1.925667002
 50
194.702433195
 51
267.885134818
  0
LINE
  8
1
 62
7
  6
CONTINUOUS
 10
1262.928164279
 20
311.353114776
 11
1262.928164279
 21
310.231850862
  0
ARC
  8
1
 62
7
  6
CONTINUOUS
 10
1240.816643154
 20
270.139405230
 40
40.000000000
 50
92.996923595
 51
93.132003533
  0
LINE
  8
1
 62
7
  6
CONTINUOUS
 10
1249.129004004
 20
309.509036961
 11
1246.403724589
 21
309.366211119
  0
POLYLINE
  8
1
 62
7
  6
CONTINUOUS
 66
1
  0
VERTEX
  8
1
 10
1203.446912330
 20
284.374194379
  0
VERTEX
  8
1
 10
1203.896645384
 20
284.374067432
  0
VERTEX
  8
1
 10
1204.756747488
 20
284.374121317
  0
SEQEND
  8
1
  0
POLYLINE
  8
1
 62
7
  6
CONTINUOUS
 66
1
  0
VERTEX
  8
1
 10
1228.212042321
 20
306.815985246
  0
VERTEX
  8
1
 10
1223.286510830
 20
304.657271462
  0
VERTEX
  8
1
 10
1220.671334303
 20
303.067374442
  0
SEQEND
  8
1
  0
POLYLINE
  8
1
 62
7
  6
CONTINUOUS
 66
1
  0
VERTEX
  8
1
 10
1238.629477035
 20
308.954449791
  0
VERTEX
  8
1
 10
1234.588414476
 20
308.498937193
  0
VERTEX
  8
1
 10
1234.439752509
 20
308.464861364
  0
SEQEND
  8
1
  0
LINE
  8
1
 62
7
  6
CONTINUOUS
 10
1262.928164279
 20
310.232220307
 11
1256.915993005
 21
309.917135762
  0
LINE
  8
1
 62
7
  6
CONTINUOUS
 10
1220.373104472
 20
115.042587473
 11
1220.402814006
 21
114.916881219
  0
LINE
  8
1
 62
7
  6
CONTINUOUS
 10
1351.997532266
 20
316.817294097
 11
1351.202343697
 21
315.979368500
  0
ARC
  8
1
 62
7
  6
CONTINUOUS
 10
1387.982374717
 20
22.924242424
 40
6.290000000
 50
288.539902705
 51
303.148053645
  0
ARC
  8
1
 62
7
  6
CONTINUOUS
 10
1387.982374717
 20
22.924242424
 40
6.290000000
 50
230.851946354
 51
251.460097295
  0
LINE
  8
1
 62
7
  6
CONTINUOUS
 10
1397.982374717
 20
320.934436905
 11
1373.481689485
 21
319.650410401
  0
LINE
  8
1
 62
7
  6
CONTINUOUS
 10
1373.481689485
 20
18.598074446
 11
1384.011331339
 21
18.046239299
  0
LINE
  8
1
 62
7
  6
CONTINUOUS
 10
1391.421774134
 20
17.657874449
 11
1397.982374717
 21
17.314047942
  0
LINE
  8
1
 62
7
  6
CONTINUOUS
 10
1373.000973788
 20
19.131963315
 11
1373.481689485
 21
18.598074446
  0
LINE
  8
1
 62
7
  6
CONTINUOUS
 10
1373.481689485
 20
319.650410401
 11
1372.982374717
 21
319.095865172
  0
LINE
  8
1
 62
7
  6
CONTINUOUS
 10
1372.982374717
 20
292.711299094
 11
1372.982374717
 21
45.537185753
  0
POLYLINE
  8
1
 62
7
  6
CONTINUOUS
 66
1
  0
VERTEX
  8
1
 10
1356.384822095
 20
51.200773787
  0
VERTEX
  8
1
 10
1359.557777993
 20
48.942226159
  0
VERTEX
  8
1
 10
1362.144782234
 20
46.055888984
  0
SEQEND
  8
1
  0
LINE
  8
1
 62
7
  6
CONTINUOUS
 10
1346.516688743
 20
56.692023755
 11
1356.384822095
 21
51.200773787
  0
ARC
  8
1
 62
7
  6
CONTINUOUS
 10
1527.788784732
 20
380.666488534
 40
371.239850519
 50
227.106234275
 51
240.771857916
  0
ARC
  8
1
 62
7
  6
CONTINUOUS
 10
1239.331878102
 20
70.086588393
 40
52.631935747
 50
47.177037693
 51
77.036028363
  0
POLYLINE
  8
1
 62
7
  6
CONTINUOUS
 66
1
  0
VERTEX
  8
1
 10
1353.489629917
 20
271.131712447
  0
VERTEX
  8
1
 10
1295.307789682
 20
268.085830157
  0
VERTEX
  8
1
 10
1237.209332271
 20
265.039900861
  0
SEQEND
  8
1
  0
ARC
  8
1
 62
7
  6
CONTINUOUS
 10
1352.834958563
 20
283.669522584
 40
12.554890585
 50
272.989028442
 51
359.990515496
  0
LINE
  8
1
 62
7
  6
CONTINUOUS
 10
1365.389845252
 20
292.358489492
 11
1365.389848976
 21
283.667444299
  0
LINE
  8
1
 62
7
  6
CONTINUOUS
 10
1372.982374717
 20
21.597949345
 11
1372.982374717
 21
19.114311433
  0
LINE
  8
1
 62
7
  6
CONTINUOUS
 10
1372.982374717
 20
45.537185753
 11
1372.982374717
 21
21.597949345
  0
LINE
  8
1
 62
7
  6
CONTINUOUS
 10
1372.982374717
 20
319.095865172
 11
1372.982374717
 21
292.711299094
  0
ARC
  8
1
 62
7
  6
CONTINUOUS
 10
1850.780769153
 20
29.889588084
 40
485.424320977
 50
179.434469607
 51
180.990735101
  0
ARC
  8
1
 62
7
  6
CONTINUOUS
 10
1344.196737760
 20
34.803452859
 40
21.183711176
 50
359.668329956
 51
32.085448589
  0
POLYLINE
  8
1
 62
7
  6
CONTINUOUS
 66
1
  0
VERTEX
  8
1
 10
1365.396137512
 20
316.750549515
  0
VERTEX
  8
1
 10
1365.373302175
 20
316.200567108
  0
VERTEX
  8
1
 10
1365.356104544
 20
314.762237391
  0
VERTEX
  8
1
 10
1365.345250171
 20
312.499776495
  0
VERTEX
  8
1
 10
1365.341008374
 20
309.470047392
  0
VERTEX
  8
1
 10
1365.343558202
 20
305.818285993
  0
VERTEX
  8
1
 10
1365.352813078
 20
301.636104427
  0
VERTEX
  8
1
 10
1365.368384096
 20
297.107894727
  0
VERTEX
  8
1
 10
1365.389845252
 20
292.358489492
  0
SEQEND
  8
1
  0
POLYLINE
  8
1
 62
7
  6
CONTINUOUS
 66
1
  0
VERTEX
  8
1
 10
1241.402436137
 20
122.538603034
  0
VERTEX
  8
1
 10
1246.226373917
 20
122.164547112
  0
VERTEX
  8
1
 10
1251.139222318
 20
121.377009361
  0
SEQEND
  8
1
  0
POLYLINE
  8
1
 62
7
  6
CONTINUOUS
 66
1
  0
VERTEX
  8
1
 10
1219.908277379
 20
123.341356462
  0
VERTEX
  8
1
 10
1221.248557710
 20
123.292171358
  0
VERTEX
  8
1
 10
1223.047045377
 20
123.225510788
  0
VERTEX
  8
1
 10
1225.273050921
 20
123.142564469
  0
VERTEX
  8
1
 10
1227.871046969
 20
123.045465514
  0
VERTEX
  8
1
 10
1230.837300688
 20
122.934418856
  0
VERTEX
  8
1
 10
1234.118078159
 20
122.811503419
  0
VERTEX
  8
1
 10
1237.640393779
 20
122.679521032
  0
VERTEX
  8
1
 10
1241.402436137
 20
122.538603034
  0
SEQEND
  8
1
  0
POLYLINE
  8
1
 62
7
  6
CONTINUOUS
 66
1
  0
VERTEX
  8
1
 10
1237.209329384
 20
265.039900712
  0
VERTEX
  8
1
 10
1232.015296237
 20
264.773226148
  0
VERTEX
  8
1
 10
1227.037098773
 20
264.516390962
  0
VERTEX
  8
1
 10
1222.391455989
 20
264.275451050
  0
VERTEX
  8
1
 10
1218.118857363
 20
264.052524164
  0
VERTEX
  8
1
 10
1214.380256216
 20
263.856023699
  0
VERTEX
  8
1
 10
1211.204636839
 20
263.687486606
  0
VERTEX
  8
1
 10
1208.699605012
 20
263.552627943
  0
VERTEX
  8
1
 10
1206.908401407
 20
263.453772204
  0
SEQEND
  8
1
  0
LINE
  8
1
 62
7
  6
CONTINUOUS
 10
1218.565581039
 20
121.328946710
 11
1217.789833079
 21
121.369601938
  0
LINE
  8
1
 62
7
  6
CONTINUOUS
 10
1228.605061014
 20
100.721043667
 11
1233.932632639
 21
95.312315374
  0
POLYLINE
  8
1
 62
7
  6
CONTINUOUS
 66
1
  0
VERTEX
  8
1
 10
1239.124261814
 20
90.041600386
  0
VERTEX
  8
1
 10
1244.682272261
 20
84.398922919
  0
VERTEX
  8
1
 10
1261.561549897
 20
69.063296692
  0
VERTEX
  8
1
 10
1279.225299636
 20
54.693267231
  0
VERTEX
  8
1
 10
1297.682296003
 20
41.299377969
  0
VERTEX
  8
1
 10
1316.956303073
 20
28.911863077
  0
SEQEND
  8
1
  0
LINE
  8
1
 62
7
  6
CONTINUOUS
 10
1240.006279068
 20
89.122847702
 11
1238.202974091
 21
90.920969400
  0
ARC
  8
1
 62
7
  6
CONTINUOUS
 10
1313.188220475
 20
168.228282564
 40
107.699618588
 50
222.614379522
 51
225.873544432
  0
LINE
  8
1
 62
7
  6
CONTINUOUS
 10
1210.503781381
 20
293.871058890
 11
1210.503779399
 21
293.871058884
  0
LINE
  8
1
 62
7
  6
CONTINUOUS
 10
1365.396137512
 20
317.367785532
 11
1365.396137512
 21
316.750549515
  0
ARC
  8
1
 62
7
  6
CONTINUOUS
 10
1363.415551984
 20
198.667917016
 40
118.714685515
 50
91.015169371
 51
95.341100868
  0
LINE
  8
1
 62
7
  6
CONTINUOUS
 10
1365.468962259
 20
317.664266726
 11
1361.573105188
 21
317.454480734
  0
LINE
  8
1
 62
7
  6
CONTINUOUS
 10
1365.468962259
 20
317.664266726
 11
1365.468962259
 21
319.230481162
  0
LINE
  8
1
 62
7
  6
CONTINUOUS
 10
1365.429017077
 20
21.496248258
 11
1365.429017077
 21
19.020097124
  0
ARC
  8
1
 62
7
  6
CONTINUOUS
 10
1246.424694561
 20
260.455414700
 40
50.574055360
 50
77.974096192
 51
84.079475493
  0
ARC
  8
1
 62
7
  6
CONTINUOUS
 10
1235.863542598
 20
259.751689381
 40
50.732985210
 50
77.959018490
 51
84.032618526
  0
LINE
  8
1
 62
7
  6
CONTINUOUS
 10
1330.877419707
 20
24.643474271
 11
1337.867702805
 21
24.277088051
  0
ARC
  8
1
 62
7
  6
CONTINUOUS
 10
1332.447619040
 20
54.600268167
 40
29.997917036
 50
238.908047626
 51
266.999560748
  0
ARC
  8
1
 62
7
  6
CONTINUOUS
 10
1203.774154219
 20
-217.960457316
 40
341.682949557
 50
87.293511319
 51
87.867019125
  0
POLYLINE
  8
1
 62
7
  6
CONTINUOUS
 66
1
  0
VERTEX
  8
1
 10
1206.908401407
 20
263.453772204
  0
VERTEX
  8
1
 10
1205.030592161
 20
263.354029768
  0
VERTEX
  8
1
 10
1203.828633130
 20
263.289549852
  0
VERTEX
  8
1
 10
1203.302533806
 20
263.260334807
  0
SEQEND
  8
1
  0
LINE
  8
1
 62
7
  6
CONTINUOUS
 10
1228.083208107
 20
101.293889053
 11
1228.605061014
 21
100.721043667
  0
ARC
  8
1
 62
7
  6
CONTINUOUS
 10
1255.028003943
 20
125.183464943
 40
36.010191042
 50
200.470671302
 51
221.560577310
  0
LINE
  8
1
 62
7
  6
CONTINUOUS
 10
1221.005782708
 20
112.906475508
 11
1221.013067165
 21
112.822697196
  0
ARC
  8
1
 62
7
  6
CONTINUOUS
 10
1242.902422293
 20
120.471235501
 40
23.166255336
 50
193.069295659
 51
199.058806737
  0
POLYLINE
  8
1
 62
7
  6
CONTINUOUS
 66
1
  0
VERTEX
  8
1
 10
1216.491547532
 20
123.485865742
  0
VERTEX
  8
1
 10
1215.838669841
 20
123.348697265
  0
VERTEX
  8
1
 10
1215.434426295
 20
123.264860902
  0
VERTEX
  8
1
 10
1215.838735690
 20
123.348710964
  0
VERTEX
  8
1
 10
1216.491583637
 20
123.485873487
  0
SEQEND
  8
1
  0
POLYLINE
  8
1
 62
7
  6
CONTINUOUS
 66
1
  0
VERTEX
  8
1
 10
1203.302562138
 20
263.260391614
  0
VERTEX
  8
1
 10
1202.013725630
 20
263.227957988
  0
VERTEX
  8
1
 10
1200.472216585
 20
263.186135042
  0
VERTEX
  8
1
 10
1199.070857340
 20
263.146868541
  0
VERTEX
  8
1
 10
1198.202470234
 20
263.122104250
  0
VERTEX
  8
1
 10
1198.219628553
 20
263.122597243
  0
SEQEND
  8
1
  0
POLYLINE
  8
1
 62
7
  6
CONTINUOUS
 66
1
  0
VERTEX
  8
1
 10
1200.627880634
 20
263.190384906
  0
VERTEX
  8
1
 10
1202.041017133
 20
263.228678248
  0
VERTEX
  8
1
 10
1203.100878945
 20
263.255321657
  0
SEQEND
  8
1
  0
LINE
  8
1
 62
7
  6
CONTINUOUS
 10
1202.054151372
 20
273.124242429
 11
1200.971319481
 21
273.124242424
  0
LINE
  8
1
 62
7
  6
CONTINUOUS
 10
1218.565581039
 20
121.328946710
 11
1220.387503427
 21
115.046763353
  0
POLYLINE
  8
1
 62
7
  6
CONTINUOUS
 66
1
  0
VERTEX
  8
1
 10
1210.358238609
 20
293.870637236
  0
VERTEX
  8
1
 10
1210.348423034
 20
293.870606979
  0
VERTEX
  8
1
 10
1209.707147486
 20
293.868819927
  0
VERTEX
  8
1
 10
1209.186582061
 20
293.867548952
  0
VERTEX
  8
1
 10
1208.817352610
 20
293.866724746
  0
VERTEX
  8
1
 10
1208.630413143
 20
293.866346179
  0
VERTEX
  8
1
 10
1208.654480710
 20
293.866336946
  0
VERTEX
  8
1
 10
1208.884357801
 20
293.866636981
  0
VERTEX
  8
1
 10
1209.289725022
 20
293.867489311
  0
VERTEX
  8
1
 10
1209.839758104
 20
293.868995144
  0
VERTEX
  8
1
 10
1210.503781381
 20
293.871058890
  0
SEQEND
  8
1
  0
ARC
  8
1
 62
7
  6
CONTINUOUS
 10
1213.905655122
 20
680.293416754
 40
377.286709828
 50
270.632548167
 51
271.027509402
  0
POLYLINE
  8
1
 62
7
  6
CONTINUOUS
 66
1
  0
VERTEX
  8
1
 10
1234.439752509
 20
308.464861364
  0
VERTEX
  8
1
 10
1234.128577030
 20
308.510239296
  0
VERTEX
  8
1
 10
1232.743082730
 20
308.652436129
  0
VERTEX
  8
1
 10
1231.634294978
 20
308.748439681
  0
VERTEX
  8
1
 10
1230.895713501
 20
308.803090270
  0
VERTEX
  8
1
 10
1230.629014641
 20
308.820304400
  0
VERTEX
  8
1
 10
1230.812803216
 20
308.808639126
  0
VERTEX
  8
1
 10
1231.321291052
 20
308.772614962
  0
VERTEX
  8
1
 10
1233.095551067
 20
308.618675253
  0
VERTEX
  8
1
 10
1234.859093184
 20
308.416214680
  0
SEQEND
  8
1
  0
LINE
  8
1
 62
7
  6
CONTINUOUS
 10
1203.446912330
 20
284.374194379
 11
1203.435220257
 21
284.374194380
  0
POLYLINE
  8
1
 62
7
  6
CONTINUOUS
 66
1
  0
VERTEX
  8
1
 10
1208.131838390
 20
290.890150727
  0
VERTEX
  8
1
 10
1208.122893642
 20
290.879912516
  0
SEQEND
  8
1
  0
POLYLINE
  8
1
 62
7
  6
CONTINUOUS
 66
1
  0
VERTEX
  8
1
 10
1203.429619175
 20
280.675919297
  0
VERTEX
  8
1
 10
1203.422688274
 20
280.659358835
  0
VERTEX
  8
1
 10
1203.423507817
 20
280.661238382
  0
VERTEX
  8
1
 10
1203.429615001
 20
280.675918372
  0
SEQEND
  8
1
  0
POLYLINE
  8
1
 62
7
  6
CONTINUOUS
 66
1
  0
VERTEX
  8
1
 10
1217.320581613
 20
300.834633164
  0
VERTEX
  8
1
 10
1217.306904773
 20
300.826628110
  0
VERTEX
  8
1
 10
1217.307636958
 20
300.827086498
  0
VERTEX
  8
1
 10
1217.320575393
 20
300.834633099
  0
SEQEND
  8
1
  0
POLYLINE
  8
1
 62
7
  6
CONTINUOUS
 66
1
  0
VERTEX
  8
1
 10
1228.151888534
 20
306.792083688
  0
VERTEX
  8
1
 10
1228.134772329
 20
306.788292123
  0
VERTEX
  8
1
 10
1228.129004005
 20
306.786109268
  0
VERTEX
  8
1
 10
1228.151888944
 20
306.792087822
  0
SEQEND
  8
1
  0
POLYLINE
  8
1
 62
7
  6
CONTINUOUS
 66
1
  0
VERTEX
  8
1
 10
1238.652024607
 20
308.957739643
  0
VERTEX
  8
1
 10
1238.634807314
 20
308.958409415
  0
VERTEX
  8
1
 10
1238.629006460
 20
308.958624481
  0
SEQEND
  8
1
  0
POLYLINE
  8
1
 62
7
  6
CONTINUOUS
 66
1
  0
VERTEX
  8
1
 10
1249.152162269
 20
309.508103193
  0
VERTEX
  8
1
 10
1249.131574026
 20
309.508938185
  0
SEQEND
  8
1
  0
POLYLINE
  8
1
 62
7
  6
CONTINUOUS
 66
1
  0
VERTEX
  8
1
 10
1208.131838390
 20
290.890150727
  0
VERTEX
  8
1
 10
1205.709935449
 20
286.600040243
  0
VERTEX
  8
1
 10
1204.756515065
 20
284.373578554
  0
SEQEND
  8
1
  0
POLYLINE
  8
1
 62
7
  6
CONTINUOUS
 66
1
  0
VERTEX
  8
1
 10
1203.429619175
 20
280.675919297
  0
VERTEX
  8
1
 10
1202.430878524
 20
276.269075185
  0
VERTEX
  8
1
 10
1202.054151372
 20
273.124242429
  0
SEQEND
  8
1
  0
POLYLINE
  8
1
 62
7
  6
CONTINUOUS
 66
1
  0
VERTEX
  8
1
 10
1217.320581613
 20
300.834633164
  0
VERTEX
  8
1
 10
1212.530155996
 20
296.489218410
  0
VERTEX
  8
1
 10
1210.341973220
 20
293.870556368
  0
SEQEND
  8
1
  0
POLYLINE
  8
1
 62
7
  6
CONTINUOUS
 66
1
  0
VERTEX
  8
1
 10
1361.581213271
 20
317.452992297
  0
VERTEX
  8
1
 10
1361.431365952
 20
317.480500452
  0
VERTEX
  8
1
 10
1361.309963708
 20
317.494095628
  0
VERTEX
  8
1
 10
1361.233459005
 20
317.492120010
  0
VERTEX
  8
1
 10
1361.207425330
 20
317.475527128
  0
VERTEX
  8
1
 10
1361.223616386
 20
317.452992295
  0
SEQEND
  8
1
  0
ARC
  8
1
 62
7
  6
CONTINUOUS
 10
1387.982374717
 20
22.924242424
 40
6.245126100
 50
281.546086694
 51
288.678028676
  0
ARC
  8
1
 62
7
  6
CONTINUOUS
 10
1388.982374717
 20
17.577405438
 40
0.811387394
 50
252.054378226
 51
287.945621774
  0
LINE
  8
1
 62
7
  6
CONTINUOUS
 10
1388.732374717
 20
17.008027418
 11
1388.732374718
 21
16.805492553
  0
ARC
  8
1
 62
7
  6
CONTINUOUS
 10
1387.982374717
 20
22.924242424
 40
5.963564370
 50
262.775138609
 51
277.224861391
  0
LINE
  8
1
 62
7
  6
CONTINUOUS
 10
1387.232374717
 20
16.805492552
 11
1387.232374717
 21
17.008027418
  0
POLYLINE
  8
1
 62
7
  6
CONTINUOUS
 66
1
  0
VERTEX
  8
1
 10
1386.732374717
 20
16.805492552
  0
VERTEX
  8
1
 10
1386.894263047
 20
16.777984396
  0
VERTEX
  8
1
 10
1387.040390869
 20
16.764389220
  0
VERTEX
  8
1
 10
1387.150797037
 20
16.766364838
  0
VERTEX
  8
1
 10
1387.216009206
 20
16.782957720
  0
VERTEX
  8
1
 10
1387.232374717
 20
16.805492552
  0
SEQEND
  8
1
  0
ARC
  8
1
 62
7
  6
CONTINUOUS
 10
1387.982374717
 20
22.924242424
 40
6.245126100
 50
251.321971324
 51
258.453913306
  0
LINE
  8
1
 62
7
  6
CONTINUOUS
 10
1385.982374717
 20
16.960678054
 11
1385.982374717
 21
17.008027418
  0
LINE
  8
1
 62
7
  6
CONTINUOUS
 10
1389.982374717
 20
17.008027418
 11
1389.982374717
 21
16.960678054
  0
LINE
  8
1
 62
7
  6
CONTINUOUS
 10
1397.982374717
 20
45.504784332
 11
1397.982374717
 21
292.743700515
  0
LINE
  8
1
 62
7
  6
CONTINUOUS
 10
1372.982374717
 20
45.546553800
 11
1372.982374717
 21
292.701931047
  0
LINE
  8
1
 62
7
  6
CONTINUOUS
 10
1397.982374717
 20
292.743700515
 11
1397.982374717
 21
318.450586429
  0
LINE
  8
1
 62
7
  6
CONTINUOUS
 10
1397.982374717
 20
19.797898418
 11
1397.982374717
 21
45.504784332
  0
LINE
  8
1
 62
7
  6
CONTINUOUS
 10
1372.982374717
 20
292.701931047
 11
1372.982374717
 21
316.612404782
  0
LINE
  8
1
 62
7
  6
CONTINUOUS
 10
1372.982374717
 20
21.636080065
 11
1372.982374717
 21
45.546553800
  0
LINE
  8
1
 62
7
  6
CONTINUOUS
 10
1397.982374717
 20
318.450586429
 11
1397.982374717
 21
320.934436905
  0
LINE
  8
2
 62
3
  6
DASHDOT2
 10
756.018519926
 20
340.934436906
 11
756.018519926
 21
-2.685952059
  0
LINE
  8
2
 62
3
  6
DASHDOT2
 10
467.708325445
 20
169.124242424
 11
1044.328714408
 21
169.124242424
  0
LINE
  8
1
 62
7
  6
CONTINUOUS
 10
1397.982374717
 20
17.314047942
 11
1397.982374717
 21
18.013822524
  0
LINE
  8
1
 62
7
  6
CONTINUOUS
 10
1397.982374717
 20
18.175275479
 11
1397.982374717
 21
19.797898418
  0
LINE
  8
1
 62
7
  6
CONTINUOUS
 10
1372.982374717
 20
316.612404782
 11
1372.982374717
 21
316.650535502
  0
LINE
  8
1
 62
7
  6
CONTINUOUS
 10
1372.982374717
 20
21.597949345
 11
1372.982374717
 21
21.636080065
  0
LINE
  8
1
 62
7
  6
CONTINUOUS
 10
1397.982374717
 20
18.175275479
 11
1397.982374717
 21
18.013822524
  0
POLYLINE
  8
1
 62
7
  6
CONTINUOUS
 66
1
  0
VERTEX
  8
1
 10
1221.013067165
 20
112.822697196
  0
VERTEX
  8
1
 10
1221.015623265
 20
112.793299571
  0
VERTEX
  8
1
 10
1221.291808518
 20
112.589697552
  0
SEQEND
  8
1
  0
LINE
  8
2
 62
3
  6
DASHDOT2
 10
756.018519926
 20
-46.532201017
 11
756.018519926
 21
-390.152589981
  0
LINE
  8
2
 62
3
  6
DASHDOT2
 10
467.708325445
 20
-218.342395499
 11
1044.328714408
 21
-218.342395499
  0
LINE
  8
2
 62
3
  6
DASHDOT2
 10
1180.293400401
 20
169.124242424
 11
1417.982374717
 21
169.124242424
  0
ARC
  8
1
 62
7
  6
CONTINUOUS
 10
1386.682374717
 20
321.585764793
 40
1.300000000
 50
0.000000000
 51
45.000000000
  0
LINE
  8
1
 62
7
  6
CONTINUOUS
 10
1387.982374717
 20
320.397278713
 11
1387.982374717
 21
321.585764793
  0
LINE
  8
1
 62
7
  6
CONTINUOUS
 10
1387.182374717
 20
320.368432889
 11
1387.182374717
 21
321.585764793
  0
ARC
  8
1
 62
7
  6
CONTINUOUS
 10
1386.682374717
 20
321.585764793
 40
0.500000000
 50
0.000000000
 51
45.000000000
  0
LINE
  8
1
 62
7
  6
CONTINUOUS
 10
1387.035928108
 20
321.939318184
 11
1386.830902855
 21
322.144343437
  0
DIMENSION
  8
3
 62
4
  6
CONTINUOUS
  2
*D920
 70
0
  3
STANDARD
 10
1435.487671296
 20
324.124242424
 11
1435.487671296
 21
330.144900425
 14
1385.982374717
 24
324.124242424
 13
1397.982374717
 23
320.934436905
 50
90.000000000
 53
90.000000000
  0
LINE
  8
1
 62
7
  6
CONTINUOUS
 10
1387.601613533
 20
322.505003609
 11
1387.396588280
 21
322.710028862
  0
LINE
  8
1
 62
7
  6
CONTINUOUS
 10
1385.416689292
 20
323.558556999
 11
1385.982374717
 21
324.124242424
  0
LINE
  8
1
 62
7
  6
CONTINUOUS
 10
1385.982374717
 20
324.124242424
 11
1387.396588280
 21
322.710028862
  0
LINE
  8
1
 62
7
  6
CONTINUOUS
 10
1386.830902855
 20
322.144343437
 11
1385.416689292
 21
323.558556999
  0
LINE
  8
1
 62
7
  6
CONTINUOUS
 10
552.518517303
 20
320.344340562
 11
552.518517303
 21
320.139315485
  0
ARC
  8
1
 62
7
  6
CONTINUOUS
 10
771.768534740
 20
322.356492288
 40
1.785347457
 50
11.421586195
 51
98.049794487
  0
LINE
  8
1
 62
7
  6
CONTINUOUS
 10
773.518526314
 20
322.710038652
 11
773.518526314
 21
322.144345870
  0
LINE
  8
1
 62
7
  6
CONTINUOUS
 10
959.518522548
 20
320.910033344
 11
959.518522548
 21
320.344340562
  0
LINE
  8
1
 62
7
  6
CONTINUOUS
 10
738.518526165
 20
322.144345870
 11
738.518526165
 21
322.710038652
  0
ARC
  8
1
 62
7
  6
CONTINUOUS
 10
740.268517740
 20
322.356492288
 40
1.785347457
 50
81.950205516
 51
168.578413799
  0
LINE
  8
1
 62
7
  6
CONTINUOUS
 10
587.518513727
 20
320.910033344
 11
587.518513727
 21
320.344340562
  0
ARC
  8
1
 62
7
  6
CONTINUOUS
 10
585.768535008
 20
320.556503184
 40
1.785331648
 50
11.421158153
 51
98.049920670
  0
LINE
  8
1
 62
7
  6
CONTINUOUS
 10
587.518513727
 20
320.344340562
 11
587.518513727
 21
320.139315485
  0
LINE
  8
1
 62
7
  6
CONTINUOUS
 10
771.518525986
 20
324.124248257
 11
740.518526493
 21
324.124248256
  0
LINE
  8
1
 62
7
  6
CONTINUOUS
 10
773.518526314
 20
321.939320793
 11
773.518526314
 21
322.144345870
  0
ARC
  8
1
 62
7
  6
CONTINUOUS
 10
957.768519709
 20
320.556471707
 40
1.785361524
 50
11.421995039
 51
98.049486256
  0
LINE
  8
1
 62
7
  6
CONTINUOUS
 10
738.518526165
 20
321.939320793
 11
738.518526165
 21
322.144345870
  0
LINE
  8
1
 62
7
  6
CONTINUOUS
 10
959.518522548
 20
320.139315485
 11
959.518522548
 21
319.785770535
  0
LINE
  8
1
 62
7
  6
CONTINUOUS
 10
738.518526165
 20
321.585775842
 11
738.518526165
 21
321.939320793
  0
LINE
  8
1
 62
7
  6
CONTINUOUS
 10
773.518526314
 20
321.585775842
 11
773.518526314
 21
321.939320793
  0
LINE
  8
1
 62
7
  6
CONTINUOUS
 10
738.518526165
 20
320.921357101
 11
738.518526165
 21
321.585775842
  0
LINE
  8
1
 62
7
  6
CONTINUOUS
 10
773.518526314
 20
320.921357082
 11
773.518526314
 21
321.585775842
  0
LINE
  8
1
 62
7
  6
CONTINUOUS
 10
924.518526125
 20
320.139315485
 11
924.518526125
 21
319.785770535
  0
LINE
  8
1
 62
7
  6
CONTINUOUS
 10
587.518513727
 20
320.139315485
 11
587.518513727
 21
319.785770535
  0
LINE
  8
1
 62
7
  6
CONTINUOUS
 10
552.518517303
 20
320.139315485
 11
552.518517303
 21
319.785770535
  0
LINE
  8
1
 62
7
  6
CONTINUOUS
 10
959.518522548
 20
319.785770535
 11
959.518522548
 21
319.165603657
  0
LINE
  8
1
 62
7
  6
CONTINUOUS
 10
587.518513727
 20
319.785770535
 11
587.518513727
 21
319.721766354
  0
LINE
  8
1
 62
7
  6
CONTINUOUS
 10
552.518517303
 20
319.785770535
 11
552.518517303
 21
319.165603656
  0
LINE
  8
1
 62
7
  6
CONTINUOUS
 10
773.518520002
 20
-66.545279695
 11
773.518520002
 21
-65.880866720
  0
LINE
  8
1
 62
7
  6
CONTINUOUS
 10
738.518519853
 20
-66.545279695
 11
738.518519853
 21
-65.880866720
  0
LINE
  8
1
 62
7
  6
CONTINUOUS
 10
552.518517304
 20
-68.301038815
 11
552.518517304
 21
-67.680867388
  0
LINE
  8
1
 62
7
  6
CONTINUOUS
 10
587.518513728
 20
-67.744882776
 11
587.518513728
 21
-67.680867388
  0
LINE
  8
1
 62
7
  6
CONTINUOUS
 10
924.518526126
 20
-67.744882776
 11
924.518526126
 21
-67.680867388
  0
LINE
  8
1
 62
7
  6
CONTINUOUS
 10
959.518522550
 20
-68.301038815
 11
959.518522550
 21
-67.680867388
  0
LINE
  8
1
 62
7
  6
CONTINUOUS
 10
773.518520002
 20
-65.880866720
 11
773.518520002
 21
-64.961628987
  0
LINE
  8
1
 62
7
  6
CONTINUOUS
 10
738.518519853
 20
-65.880866720
 11
738.518519853
 21
-64.961628987
  0
LINE
  8
1
 62
7
  6
CONTINUOUS
 10
552.518517304
 20
-67.680867388
 11
552.518517304
 21
-66.761629655
  0
LINE
  8
1
 62
7
  6
CONTINUOUS
 10
587.518513728
 20
-67.680867388
 11
587.518513728
 21
-66.761629655
  0
LINE
  8
1
 62
7
  6
CONTINUOUS
 10
924.518526126
 20
-67.680867388
 11
924.518526126
 21
-66.761629655
  0
LINE
  8
1
 62
7
  6
CONTINUOUS
 10
959.518522550
 20
-67.680867388
 11
959.518522550
 21
-66.761629655
  0
ARC
  8
1
 62
7
  6
CONTINUOUS
 10
585.768535009
 20
-66.910134738
 40
1.785331648
 50
11.421158153
 51
98.049920670
  0
ARC
  8
1
 62
7
  6
CONTINUOUS
 10
554.268520144
 20
-66.910166216
 40
1.785361524
 50
81.950513746
 51
168.578004959
  0
LINE
  8
1
 62
7
  6
CONTINUOUS
 10
585.518524576
 20
-65.142394974
 11
554.518521358
 21
-65.142394974
  0
LINE
  8
1
 62
7
  6
CONTINUOUS
 10
552.518517304
 20
-66.761629655
 11
552.518517304
 21
-66.556604578
  0
LINE
  8
1
 62
7
  6
CONTINUOUS
 10
587.518513728
 20
-66.761629655
 11
587.518513728
 21
-66.556604578
  0
ARC
  8
1
 62
7
  6
CONTINUOUS
 10
957.768519710
 20
-66.910166216
 40
1.785361524
 50
11.421995039
 51
98.049486256
  0
ARC
  8
1
 62
7
  6
CONTINUOUS
 10
926.268504845
 20
-66.910134738
 40
1.785331648
 50
81.950079329
 51
168.578841849
  0
LINE
  8
1
 62
7
  6
CONTINUOUS
 10
926.518515278
 20
-65.142394974
 11
957.518518497
 21
-65.142394974
  0
LINE
  8
1
 62
7
  6
CONTINUOUS
 10
924.518526126
 20
-66.761629655
 11
924.518526126
 21
-66.556604578
  0
LINE
  8
1
 62
7
  6
CONTINUOUS
 10
959.518522550
 20
-66.761629655
 11
959.518522550
 21
-66.556604578
  0
ARC
  8
1
 62
7
  6
CONTINUOUS
 10
740.268511427
 20
-65.110150275
 40
1.785347457
 50
81.950205516
 51
168.578413799
  0
LINE
  8
1
 62
7
  6
CONTINUOUS
 10
740.518520180
 20
-63.342394306
 11
771.518519674
 21
-63.342394306
  0
ARC
  8
1
 62
7
  6
CONTINUOUS
 10
771.768528427
 20
-65.110150275
 40
1.785347457
 50
11.421586195
 51
98.049794487
  0
LINE
  8
1
 62
7
  6
CONTINUOUS
 10
773.518520002
 20
-64.961628987
 11
773.518520002
 21
-64.756603910
  0
LINE
  8
1
 62
7
  6
CONTINUOUS
 10
738.518519853
 20
-64.961628987
 11
738.518519853
 21
-64.756603910
  0
DIMENSION
  8
3
 62
4
  6
CONTINUOUS
  2
*D976
 70
1
  3
STANDARD
 10
1122.069785316
 20
-63.342394306
 11
1122.069785316
 21
-216.747492143
 14
756.018519926
 24
-63.342394306
 13
756.018519926
 23
-370.152589981
 50
90.000000000
 53
90.000000000
  0
DIMENSION
  8
3
 62
4
  6
CONTINUOUS
  2
*D977
 70
1
  3
STANDARD
 10
1056.289054738
 20
324.124248256
 11
1056.289054738
 21
335.389487927
 14
756.018519926
 24
324.124248256
 13
756.018519926
 23
320.934436906
 50
90.000000000
 53
90.000000000
  0
ENDSEC
  0
EOF
